<?xml version="1.0" standalone="no"?>
<!DOCTYPE svg PUBLIC "-//W3C//DTD SVG 1.1//EN" "http://www.w3.org/Graphics/SVG/1.1/DTD/svg11.dtd">
<svg xmlns="http://www.w3.org/2000/svg">
<metadata>Copyright (C) 2014 by original authors @ fontello.com</metadata>
<defs>
<font id="fontello" horiz-adv-x="1000" >
<font-face font-family="fontello" font-weight="400" font-stretch="normal" units-per-em="1000" ascent="850" descent="-150" />
<missing-glyph horiz-adv-x="1000" />
<glyph glyph-name="child-1" unicode="&#xe800;" d="m36 582q0 22 15 38t38 16 38-16l127-127h206l127 127q16 16 38 16t38-16 16-38-16-38l-163-163v-460q0-25-18-44t-44-18-45 18-18 44v215h-36v-215q0-25-18-44t-44-18-44 18-19 44v460l-163 163q-15 16-15 38z m196 54q0 52 37 88t88 37 89-37 36-88-36-89-89-36-88 36-37 89z" horiz-adv-x="714.3" />
<glyph glyph-name="linux" unicode="&#xe801;" d="m6-71q-5 12 4 37t10 30q1 9-2 23t-6 23-2 21 6 15q7 6 31 8t34 6q17 10 23 20t7 28q12-41-18-59-18-11-46-8-19 1-24-6-7-8 3-32 1-3 4-10t5-10 2-9 1-13q0-8-9-27t-8-27q1-9 20-14 12-4 47-11t56-11q13-3 41-12t46-13 31-2q24 3 36 15t13 27-4 33-11 29-11 20q-67 106-94 135-38 41-63 23-6-6-9 8-1 9-1 21 1 16 6 29t13 26 13 24q4 11 14 40t17 43 17 34 21 31q62 79 70 108-7 63-9 173-2 51 13 85t59 58q22 12 58 12 30 1 59-8t50-23q32-23 51-68t17-82q-3-53 16-119 19-63 74-122 31-33 56-91t33-106q5-28 3-48t-7-31-11-12q-5-1-13-10t-15-20-23-19-34-8q-10 1-17 3t-13 8-7 8-7 12-5 10q-12 21-23 17t-15-27 4-54q11-39 0-109-5-36 10-56t41-19 47 20q33 28 50 37t58 24q30 10 43 20t10 20-14 16-28 13q-19 6-28 27t-8 40 8 26q1-17 5-31t8-23 11-16 12-10 12-7 9-6q11-6 18-13t6-14-1-12-9-13-13-10-17-11-17-9-18-9-15-7q-21-11-48-31t-42-36q-9-9-38-11t-50 8q-10 5-16 13t-9 15-13 11-26 5q-24 0-72 0-11 0-32 0t-32-2q-25 0-45-8t-30-17-24-16-30-6q-16 0-62 17t-81 24q-11 2-29 5t-28 5-22 6-18 8-10 11z m173 340q-20-36 6-93 3-6 14-15t13-11q11-13 58-51t52-42q9-9 10-22t-8-24-25-13q4-8 16-24t15-31 4-39q26 13 4 51-2 5-6 9t-5 7-1 3q2 3 7 6t11-2q26-29 93-20 74 9 99 49 13 21 19 17 6-4 5-30 0-13-13-51-5-13-3-21t13-8q2 10 9 43t7 50q1 12-4 41t-4 54 13 39q9 10 29 10 0 21 19 30t40 6 34-13q0 10-31 24 2 8 4 15t3 15 2 12 0 12-1 11-1 12-3 12-3 14-3 14q-5 27-26 58t-40 42q13-11 32-47 48-90 30-155-6-22-28-23-17-2-21 10t-5 47-6 59q-5 22-11 39t-11 25-9 14-7 8-4 4q-8 35-17 58t-17 31-13 18-8 23q-3 12 3 30t2 27-24 14q-9 2-25 10t-20 9q-4 1-6 15t4 28 20 15q21 2 29-17t2-32q-6-10-1-15t17 0q7 2 7 20v21q-3 17-8 28t-11 17-13 8-15 4q-60-4-50-75 0-8-1-8-5 5-16 6t-19 0-8 2q0 32-9 51t-25 19q-15 0-23-16t-10-33q0-8 2-21t8-20 8-8q6 2 9 8 2 5-4 4-4 0-8 8t-6 19q0 12 5 21t19 8q10 0 15-12t6-22-1-12q-12-9-17-16-5-7-16-14t-11-6q-7-8-9-16t4-10q8-4 14-10t9-11 10-7 20-4q27-1 57 8 1 1 13 4t19 6 17 7 11 10q6 8 12 5 2-2 3-5t-1-7-10-5q-11-3-31-12t-26-11q-24-11-39-13-14-3-44 1-5 1-5-1t10-10q14-13 37-13 10 1 20 4t20 8 19 10 17 9 13 7 10 1 5-6q0-1-1-2t-2-3-3-3-5-2-5-3-6-3-5-2q-15-8-37-25t-38-24-27 0q-12 6-35 40-12 18-14 13-1-2-1-6 0-14-8-31t-16-31-12-33 6-35q-13-3-35-50t-26-79q-1-10-1-38t-3-33q-4-14-16-2-18 17-20 53-1 15 2 31 2 10-1 10z m29 75q2 0 7 4t7 10q0 2 1 4t1 4 1 2 0 2v2t-1 1-1 2q-3 0-4-2t-2-7-3-8-6-7q-4-5 0-7z m129 313q1-3 2-3 6 0 4-9-1-11 5-11 1 0 1 2 2 9-1 16t-6 9q-5 1-5-4z m17-45q0 7 10 9h6q-6-1-9-6t-4-6q-3 0-3 3z m48 7q14 6 18-1 2-3-1-5-3-1-7 3t-10 3z m64 41l2-1q8-2 10-17 0-2 5 1l1 2q0 6-3 11t-6 6-5 2q-8 0-4-4z m9 104q-1-2 2-5 2-2 4 0t6 5 9 5q0 1 5 1t8 1 5 4q0 1-1 2t-5 4-6 4q-8 8-13 8-5 0-7-4t0-7 0-7q-1-3-4-6t-3-5z m72-212q-7-9 4-24t22-18q5 0 8 5t2 11q-1 4-3 6t-8 3-8 3q-3 2-5 5t-4 4-3 4-2 2-3-1z" horiz-adv-x="857.1" />
<glyph glyph-name="user-add-outline" unicode="&#xe802;" d="m938 273l-313 0q-21 0-37 15t-15 36 15 37 37 15l313 0q21 0 36-15t16-37-16-36-36-15z m-157-157q-21 0-37 15t-15 37l0 312q0 21 15 37t37 16 37-16 16-37l0-312q0-22-16-37t-37-15z m-468 573q-65 0-111-46t-46-110 46-111 111-46 110 46 46 111-46 110-110 46z m0 104q107 0 183-77t77-183-77-184-183-76-184 76-76 184 76 183 184 77z m0-677q-74 0-127-22t-72-54q75-29 199-29t197 29q-21 30-73 53t-124 23z m0 104q136 0 224-63t88-146q0-41-89-72t-223-32q-140 0-227 32t-86 72q0 83 86 146t227 63z" horiz-adv-x="990" />
<glyph glyph-name="eye-outline" unicode="&#xe803;" d="m469 559q-98 0-171-53-78-55-165-156 85-99 165-155 73-52 171-52t171 52q80 56 165 155-87 101-165 156-74 53-171 53z m0 104q132 0 231-72 60-42 119-103t89-99l30-39q-12-16-32-43t-83-91-123-107q-99-71-231-71-134 0-233 71-60 42-119 103t-88 99l-29 39q11 16 32 43t82 91 122 107q99 72 233 72z m0-260q21 0 37-16t15-37-15-36-37-15-37 15-16 36 16 37 37 16z m0-209q-65 0-111 45t-45 111 45 111 111 45 110-45 46-111-46-111-110-45z m0 261q-43 0-73-31t-31-74q0-42 30-73t74-31 74 31 30 73q0 44-31 74t-73 31z" horiz-adv-x="938" />
<glyph glyph-name="menu-outline" unicode="&#xe804;" d="m885 38l-729 0q-21 0-37-16t-15-37 15-36 37-15l729 0q21 0 37 15t16 36-16 37-37 16z m0 104q65 0 111-46t45-111-45-110-111-46l-729 0q-65 0-110 46t-46 110 46 111 110 46l729 0z m0 261l-729 0q-21 0-37-16t-15-37 15-37 37-15l729 0q21 0 37 15t16 37-16 37-37 16z m0 104q65 0 111-46t45-111-45-110-111-46l-729 0q-65 0-110 46t-46 110 46 111 110 46l729 0z m0 260l-729 0q-21 0-37-15t-15-37 15-37 37-15l729 0q21 0 37 15t16 37-16 37-37 15z m0 105q65 0 111-46t45-111-45-110-111-46l-729 0q-65 0-110 46t-46 110 46 111 110 46l729 0z" horiz-adv-x="1041" />
<glyph glyph-name="search-1" unicode="&#xe805;" d="m335 246l25-25q-28-28-85-86t-73-74l-27 27q16 15 74 73t86 85z m245 551q136 0 234-97t97-234-97-234-234-96q-64 0-123 24l-255-257-184 185 256 255q-26 63-26 123 0 137 98 234t234 97z m0-551q91 0 155 64t64 156-64 155-155 64-156-64-64-155 64-156 156-64z" horiz-adv-x="928" />
<glyph glyph-name="video-circled" unicode="&#xe806;" d="m0 350q0 207 147 354t353 146 354-146 146-354-146-354-354-146-353 146-147 354z m201-226l598 0 0 453-598 0 0-453z m74 74l0 304 450 0 0-304-450 0z m159 49l175 101-175 102 0-203z" horiz-adv-x="1000" />
<glyph glyph-name="video-2" unicode="&#xe807;" d="m0-29l0 758 1000 0 0-758-1000 0z m123 123l754 0 0 512-754 0 0-512z m266 82l0 340 293-170z" horiz-adv-x="1000" />
<glyph glyph-name="ok-circled-2" unicode="&#xe808;" d="m0 350q0 207 147 354t353 146 354-146 146-354-146-354-354-146-353 146-147 354z m182-57l105-105 104-104 103 104 324 324-103 104-324-325-106 106z" horiz-adv-x="1000" />
<glyph glyph-name="exclamation" unicode="&#xe809;" d="m0 350q0 207 147 354t353 146 354-146 146-354-146-354-354-146-353 146-147 354z m318 402l79-550 207 0 78 550-364 0z m77-696q0-44 31-76t76-32 76 32 31 76-31 76-76 33-76-33-31-76z" horiz-adv-x="1000" />
<glyph glyph-name="lightbulb-alt" unicode="&#xe80a;" d="m0 350q0 207 147 354t353 146 354-146 146-354-146-354-354-146-353 146-147 354z m225-25q2-8 8-13t15-5l57 10q9 2 14 8t5 13q-2 8-10 14-3 2-11 2l-4 0-57-10q-8 0-13-6t-4-13z m1 171q-3-7 1-15t11-12l51-21q10-4 18-2t9 10q4 7 0 14t-11 11l-51 23q-4 2-10 2l-6 0q-9-4-12-10z m100 114q-2-8 4-16l31-47q4-7 13-10t15 3q6 3 7 11t-3 16l-32 49q-4 8-11 9l-6 0q-6 0-10-1-6-6-8-14z m45-291q16-33 29-59 10-21 14-37 2-8 5-23t7-26q2-6 10-8l128 0q6 2 10 8 4 10 7 29t5 20q4 16 14 37l29 59q37 82 10 142-12 24-32 40t-47 26-60 9l-2 0q-62 0-105-34-75-74-22-183z m53-272q0-9 10-9l132 0q10 0 10 9l0 24q0 9-10 9l-132 0q-10 0-10-9l0-24z m0 65q0-10 10-10l132 0q10 0 10 10l0 23q0 10-10 10l-132 0q-10 0-10-10l0-23z m58 472q0-7 5-14t14-7 14 7 5 14l0 57q0 10-5 16t-13 5l-2 0q-8 0-12-5-6-6-6-16l0-57z m123-33q0-8 6-12 6-5 15-3t13 11l31 47q10 18-4 29-4 2-10 2l-6 0q-7-2-11-9l-32-49q-3-8-2-16z m71-213q0-8 5-13t14-8l57-10q8 0 15 5t8 13-4 13-13 6l-57 10-6 0q-6 0-9-2-8-6-10-14z m8 117q2-7 9-9t18 2l51 21q8 4 11 12t1 14-12 11l-6 0q-6 0-10-2l-51-23q-7-4-11-11t0-15z" horiz-adv-x="1000" />
<glyph glyph-name="cloud-5" unicode="&#xe80b;" d="m0 241q4 69 33 125t87 85 124 14q53 85 128 114t145 6 126-81 78-137q49 6 89-22t56-68 9-90-47-82l-791 0q-41 67-37 136z" horiz-adv-x="877" />
<glyph glyph-name="cloud-circled" unicode="&#xe80c;" d="m0 350q0 207 147 354t353 146 354-146 146-354-146-354-354-146-353 146-147 354z m159-34q-3-54 29-105l615 0q29 26 36 63t-7 69-45 54-68 18q-22 76-83 126t-132 49q-94-2-156-101-51 13-96-9t-67-67-26-97z" horiz-adv-x="1000" />
<glyph glyph-name="comment-1" unicode="&#xe80d;" d="m576 629l-278 0q-70 0-119-49t-49-119l0-278q0-58 44-90 68 90 179 90l223 0q92 0 158 65t65 158-65 157-158 66z m0 112q139 0 237-99t98-236-98-237-237-98l-223 0q-46 0-79-33t-33-79q-92 0-157 66t-66 158l0 278q0 115 82 197t198 83l278 0z" horiz-adv-x="928" />
<glyph glyph-name="comment-inv" unicode="&#xe80e;" d="m18 183l0 278q0 115 82 197t198 83l278 0q139 0 237-99t98-236-98-237-237-98l-223 0q-46 0-79-33t-33-79q-92 0-157 66t-66 158z" horiz-adv-x="928" />
<glyph glyph-name="lock" unicode="&#xe80f;" d="m409 797q115 0 197-82t82-196l0-447q0-69-49-119t-118-50l-335 0q-70 0-119 50t-49 119l0 390 112 0 0 57q0 115 82 196t197 82z m-56-670q23 0 39 16t16 41q0 23-15 39t-40 16-39-16-16-39q0-24 16-41t39-16z m223 335l0 57q0 69-48 117t-118 49-119-49-50-117l0-57 335 0z" horiz-adv-x="705" />
<glyph glyph-name="lock-empty" unicode="&#xe810;" d="m409 797q115 0 197-82t82-196l0-447q0-69-49-119t-118-50l-336 0q-70 0-118 50t-49 119l0 390 112 0 0 57q0 115 82 196t197 82z m-168-278l0-57 335 0 0 57q0 69-48 117t-118 49-119-49-50-117z m280-503q23 0 39 16t16 40l0 279-446 0 0-279q0-24 16-40t39-16l336 0z m-112 168q0-23-16-40t-40-17q-23 0-39 16t-16 41q0 23 16 39t39 16 40-16 16-39z" horiz-adv-x="705" />
<glyph glyph-name="compass" unicode="&#xe811;" d="m464 685q-138 0-236-98t-98-237 98-237 236-97 237 97 98 237-98 237-237 98z m1 112q184 0 315-131t131-316-131-315-315-132-316 132-131 315 131 316 316 131z m60-388q-34 34-80 22l243 143-144-246q14 48-19 81z m-119-117q34-35 81-21l-246-144 144 244q-12-47 21-79z" horiz-adv-x="928" />
<glyph glyph-name="sun-inv" unicode="&#xe812;" d="m465 574q92 0 158-66t65-158-65-158-158-65-158 65-66 158 66 158 158 66z m56 168q0-24-17-41t-39-16-39 16-17 41 17 39 38 16q24 0 41-16t16-39z m-391-112q0 55 56 55 55 0 55-55 0-56-55-56-56 0-56 56z m-56-223q23 0 40-16t16-40-16-40-40-16-40 16-16 40q0 24 16 40t40 16z m56-335q0 55 56 55 55 0 55-55 0-56-55-56-56 0-56 56z m279-112q0 22 17 39t38 17q24 0 41-17t16-39-17-40-39-17-39 17-17 40z m296 72q-16 16-16 39t16 39 39 17 40-17 15-39-15-39-40-15-39 15z m151 263q-24 0-40 16t-17 40q0 24 17 40t40 16 39-16 16-40-16-40-39-16z m-72 295q-16-16-40-16t-39 16-16 40 16 40 39 17 40-17 15-40-15-40z" horiz-adv-x="928" />
<glyph glyph-name="moon" unicode="&#xe813;" d="m182 541q-52-82-52-181 0-141 101-243t243-101q98 0 181 53-187 18-321 151t-152 321z m166 256q-56-100-56-205 0-172 122-293t292-121q105 0 205 56-42-145-162-238t-275-93q-188 0-322 134t-134 323q0 154 93 274t237 163z" horiz-adv-x="928" />
<glyph glyph-name="video-alt" unicode="&#xe814;" d="m0 665l1313 0 0-630-1313 0 0 630z m391-529l0 69-188 0 0-69 188 0z m0 175l0 68-188 0 0-68 188 0z m0 175l0 67-188 0 0-67 188 0z m720-350l0 69-188 0 0-69 188 0z m0 175l0 68-188 0 0-68 188 0z m0 174l0 68-188 0 0-68 188 0z" horiz-adv-x="1313" />
<glyph glyph-name="videocam-1" unicode="&#xe815;" d="m741 414l255 159 0-445-255 158 0 128z m-741-314l0 500 683 0 0-500-683 0z" horiz-adv-x="996" />
<glyph glyph-name="videocam-alt" unicode="&#xe816;" d="m471-30c-21 0-35 15-41 39l-55 201 175 0 69-240-148 0z m367 610l120 88 0-347-120 89 0 170z m-45-1l0-169-144 0 0-65c0-46-35-81-81-81-9 0-250-9-323 1-54 7-245 64-245 146l0 169c0 80 176 135 246 144 88 11 313 2 322 2 46 0 81-36 81-80l0-67 144 0z m-569-197c40 0 72 33 72 73s-32 73-72 73-73-33-73-73 33-72 73-72z" horiz-adv-x="958" />
<glyph glyph-name="calendar-4" unicode="&#xe817;" d="m693 723l222 0c36 0 66-30 66-66l0-110c0-36-30-66-66-66l-100 0 0-489c0-46-21-69-70-69l-509 0c-45 0-70 23-70 69l0 489-100 0c-36 0-66 30-66 66l0 110c0 36 30 66 66 66l223 0 0 5c0 27 22 49 50 49l11 0c28 0 49-22 49-49l0-5 185 0 0 5c0 27 21 49 47 49l13 0c27 0 49-22 49-49l0-5z m-322-721c24 0 44 20 44 44 0 25-20 45-44 45-26 0-46-20-46-45 0-24 20-44 46-44z m0 114c24 0 44 20 44 45 0 24-20 44-44 44-26 0-46-20-46-44 0-25 20-45 46-45z m0 115c24 0 44 19 44 45 0 24-20 44-44 44-26 0-46-20-46-44 0-26 20-45 46-45z m0 115c24 0 44 20 44 44 0 25-20 45-44 45-26 0-46-20-46-45 0-24 20-44 46-44z m120-344c24 0 44 20 44 44 0 25-20 45-44 45-25 0-45-20-45-45 0-24 20-44 45-44z m0 114c24 0 44 20 44 45 0 24-20 44-44 44-25 0-45-20-45-44 0-25 20-45 45-45z m0 115c24 0 44 19 44 45 0 24-20 44-44 44-25 0-45-20-45-44 0-26 20-45 45-45z m0 115c24 0 44 20 44 44 0 25-20 45-44 45-25 0-45-20-45-45 0-24 20-44 45-44z m120-344c27 0 45 20 45 44 0 25-18 45-45 45-25 0-45-20-45-45 0-24 20-44 45-44z m0 114c27 0 45 20 45 45 0 24-18 44-45 44-25 0-45-20-45-44 0-25 20-45 45-45z m0 115c27 0 45 19 45 45 0 24-18 44-45 44-25 0-45-20-45-44 0-26 20-45 45-45z m0 115c27 0 45 20 45 44 0 25-18 45-45 45-25 0-45-20-45-45 0-24 20-44 45-44z" horiz-adv-x="981" />
<glyph glyph-name="calendar-alt-1" unicode="&#xe818;" d="m210 515l-210 0 0 185 210 0 0-185z m-185-164l0 69 160 0 0-69-160 0z m0-175l0 69 160 0 0-69-160 0z m0-175l0 69 160 0 0-69-160 0z m463 514l-210 0 0 185 210 0 0-185z m-185-164l0 69 160 0 0-69-160 0z m0-175l0 69 160 0 0-69-160 0z m0-175l0 69 160 0 0-69-160 0z m463 514l-210 0 0 185 210 0 0-185z m-185-164l0 69 160 0 0-69-160 0z m0-175l0 69 160 0 0-69-160 0z m0-175l0 69 160 0 0-69-160 0z" horiz-adv-x="766" />
<glyph glyph-name="clock-4" unicode="&#xe819;" d="m406 757c224 0 407-182 407-407 0-223-183-406-407-406-225 0-406 183-406 406 0 225 181 407 406 407z m0-723c175 0 317 143 317 318s-142 316-317 316-317-141-317-316 142-318 317-318z m120 268l-127 0c-14 0-25 5-33 15l-143 156c-39 41 25 101 65 61l130-142 108 0c62 0 55-90 0-90z m-145 287c0 13 12 24 24 24s24-11 24-24-11-24-24-24-24 12-24 24z m167-65c0 13 11 24 23 24s24-11 24-24-11-24-24-24-23 12-23 24z m73-171c0 12 12 24 24 24s24-12 24-24-11-24-24-24-24 11-24 24z m-66-168c0 13 11 24 24 24s24-11 24-24-12-23-24-23-24 11-24 23z m-175-72c0 12 11 24 24 24s24-12 24-24-12-24-24-24-24 11-24 24z m-162 65c0 12 11 24 23 24s24-12 24-24-11-24-24-24-23 11-23 24z m-75 175c0 12 11 24 23 24s24-12 24-24-11-24-24-24-23 11-23 24z" horiz-adv-x="813" />
<glyph glyph-name="movie" unicode="&#xe81a;" d="m0-31v761q0 37 26 62t62 26h117v-175h528v175h117q36 0 61-26t26-62v-761q0-36-26-62t-61-26h-117v176h-528v-176h-117q-36 0-62 26t-26 62z m74 44v-59h58v59h-58z m0 88h58v59h-58v-59z m0 146h58v59h-58v-59z m0 147h58v59h-58v-59z m0 146h58v59h-58v-59z m0 147h58v59h-58v-59z m131-484h528v293h-528v-293z m600-190v-59h58v59h-58z m0 88h58v59h-58v-59z m0 146h58v59h-58v-59z m0 147h58v59h-58v-59z m0 146h58v59h-58v-59z m0 147h58v59h-58v-59z" horiz-adv-x="937.5" />
<glyph glyph-name="videocam-3" unicode="&#xe81b;" d="m0 164v373q0 62 43 106t104 44h549q59 0 102-42t45-101l208 133q26 17 44 6t18-43v-578q0-33-18-44t-44 6l-208 133q-2-60-45-102t-102-41h-549q-61 0-104 44t-43 106z m636 353q0-18 13-31t31-13 31 13 13 31-13 31-31 13-31-13-13-31z" horiz-adv-x="1113.8" />
<glyph glyph-name="isight" unicode="&#xe81c;" d="m0 350q0 95 37 182t100 149 150 100 182 37 182-37 149-100 100-149 37-182-37-182-100-150-149-100-182-37-182 37-150 100-100 150-37 182z m176 0q0-79 39-147t107-107 147-39 146 39 107 107 39 147q0 79-39 147t-107 106-146 40-147-40-107-106-39-147z m176-150q99 6 167 79t68 171q0 27-5 53 35-26 56-67t21-86q0-79-56-134t-134-56q-65 0-117 40z" horiz-adv-x="937.5" />
<glyph glyph-name="camera-4" unicode="&#xe81d;" d="m0 96v508q0 64 47 110t112 46h737q65 0 112-46t46-110v-508q0-65-46-111t-112-45h-737q-66 0-112 45t-47 111z m114 508q0-19 13-31t32-13q18 0 31 13t13 31-13 31-31 13-32-13-13-31z m179-245q0-64 32-118t85-85 118-32 117 32 85 85 32 118-32 117-85 85-117 32-118-32-85-85-32-118z m88 0q0-61 43-104t104-43 103 43 43 104q0 60-43 103t-103 42-104-42-43-103z" horiz-adv-x="1054.7" />
<glyph glyph-name="star-half-1" unicode="&#xe81e;" d="m3 450q-12 30 16 47t87 18h233l70 213 0 2q15 43 33 66t39 21v-727l-186-135-3-2q-49-35-82-36t-40 29 10 89l1 1 0 1 70 214-182 129-2 3-3 1q-49 35-61 65z" horiz-adv-x="481" />
<glyph glyph-name="star-4" unicode="&#xe81f;" d="m2 460q11 37 101 37h225l69 207v1q19 56 44 75t49 0 43-75l1-1 68-207h226q58 0 85-17t14-47-59-63l-5-4-176-126 67-207 2-2q27-85-4-109t-105 29l-3 2-2 1-177 127-179-128-2-2q-73-52-105-29t-4 109l1 1v2l68 206-177 126-2 2-2 2q-73 52-61 90z" horiz-adv-x="931.2" />
<glyph glyph-name="lock-4" unicode="&#xe820;" d="m0-30v393q0 15 10 25t24 10h46v148q0 54 20 104t56 87q36 39 85 60t104 21q54 0 103-21t85-60q36-38 56-87t20-104v-148h46q14 0 24-10t10-25v-393q0-7-3-12t-7-8-10-7-14-6q-19-8-53-18t-111-24-147-14q-151 0-310 56-16 6-25 13t-9 20z m206 428h277v148q0 63-42 107-40 42-96 43-58-1-98-43-41-44-41-107v-148z" horiz-adv-x="689" />
<glyph glyph-name="down-4" unicode="&#xe821;" d="m0 283q0 25 18 43t44 18 42-18l244-243v642q0 25 18 43t43 18 43-18 18-43v-642l243 243q18 18 43 18t43-18q18-18 18-43t-18-44l-390-390-391 390q-18 20-18 44z" horiz-adv-x="817.4" />
<glyph glyph-name="left-2" unicode="&#xe822;" d="m0 353l390 391q19 18 44 18 25 0 43-18t18-44-18-43l-243-243h642q25 0 43-18t18-43-18-43-43-18h-642l243-243q18-18 18-44t-18-43-43-18-44 18z" horiz-adv-x="938" />
<glyph glyph-name="right-2" unicode="&#xe823;" d="m0 347q0 26 18 43t43 17h642l-242 244q-19 18-19 44t19 42q17 19 42 19t44-19l390-390-390-391q-20-18-44-18t-42 18-19 44 19 43l242 242h-642q-25 0-43 18t-18 44z" horiz-adv-x="938" />
<glyph glyph-name="up-4" unicode="&#xe824;" d="m0 354q0 26 18 44l391 390 390-390q18-18 18-44 0-26-18-43-18-18-43-18t-43 18l-243 243v-642q0-25-18-43t-43-18q-26 0-44 18t-17 43v642l-244-243q-18-18-43-18t-43 18q-18 17-18 43z" horiz-adv-x="817.4" />
<glyph glyph-name="at-2" unicode="&#xe825;" d="m0 340q0 197 130 334 136 144 350 144 175 0 288-98 121-105 121-278 0-135-77-233-76-97-174-97-50 0-78 31-28 31-28 65 0 1 1 4t0 5q0 1 1 5t0 6q-22-45-47-69-46-46-112-46-67 0-111 52-45 52-45 145 0 109 68 203 69 95 166 95 57 0 91-34 25-28 32-62l20 75h104l-71-260q-3-12-7-28t-5-19q-3-14-3-26 0-18 11-34 11-16 35-16 48 0 96 67 48 69 48 179 0 165-131 237-80 45-183 45-188 0-302-125-102-111-102-270 0-176 120-278 107-90 260-90 105 0 195 42 50 22 103 63l13 10q4 3 10 5t14 3 15-4 13-16q6-17 3-29t-8-19l-7-7q-77-66-169-101-92-35-189-35-229 0-355 155-104 128-104 304z m340-41q0-44 18-71 18-27 52-27 59 0 97 97 37 98 37 153 0 32-17 54-17 21-47 21-58 0-99-77-41-77-41-150z" horiz-adv-x="888.7" />
<glyph glyph-name="hash-1" unicode="&#xe826;" d="m2 207q4 25 25 42t46 16h149l36 170h-135q-28 0-46 21-17 22-12 51 5 25 26 42t46 16h149l31 150q6 26 26 42t46 17q30 0 47-21t11-51l-29-137h167l32 150q5 26 26 42t46 17q29 0 46-21 18-21 11-51l-29-137h136q28 0 46-21 17-22 11-51-5-25-25-42t-46-16h-149l-37-170h136q28 0 47-21 17-22 11-51-6-26-26-42t-46-17h-149l-32-150q-5-25-25-42t-46-16q-29 0-47 21-17 22-11 50l29 137h-167l-33-150q-5-25-25-42t-46-16q-28 0-46 21-17 22-12 50l30 137h-136q-29 0-46 22-18 20-11 51z m352 58h168l36 170h-168z" horiz-adv-x="912.1" />
<glyph glyph-name="female" unicode="&#xe827;" d="m0 534q0 58 23 111t60 90 91 61 111 22q76 0 142-38t104-103 38-143q0-99-61-176t-156-99v-79h96q28 0 48-20t19-47-19-49-48-20h-96v-95q0-28-20-48t-47-20-49 20-20 48v95h-95q-28 0-48 20t-19 49 19 47 48 20h95v79q-94 22-155 99t-61 176z m136 0q0-61 44-105t105-43 104 43 44 105-44 105-104 44-105-44-44-105z" horiz-adv-x="568.8" />
<glyph glyph-name="anchor-1" unicode="&#xe828;" d="m-1 202q0 8 5 13l102 123 22-28 78-96q5-6 4-14t-7-12q-11-8-23 0l-23 19q16-60 63-101t113-54q6-1 11 0t10 7 6 20v389q0 10-6 16t-11 7l-6 1h-40q-19 0-33 13t-14 34 14 33 33 13h42q2 1 3 1t5 2 5 3 4 4 3 6 1 8v10q-31 14-49 42t-19 64q0 48 34 82t81 34 82-34 34-82q0-35-19-64t-50-42v-10q0-5 1-8t4-6 4-4 5-3 4-1 3-2h43q19 0 33-13t14-33q0-20-14-33t-33-14h-41q-2 0-6-1t-11-7-6-15v-390q0-13 6-20t11-8 10 0q67 15 114 55t63 101l-23-19q-6-5-13-4t-13 7q-8 12 0 23l78 96 21 27 103-122q4-6 4-15t-7-14q-6-5-14-5t-13 5l-30 25q-17-102-87-179t-171-102q-1-1-2-1-14-3-24-13t-14-21q-4-16-17-26t-29-10q-16 0-29 10t-16 26q-3 12-14 21t-24 13q-2 0-3 1-100 26-170 102t-88 179l-29-25q-6-6-15-5t-15 8q-5 5-5 13z m351 524q0-20 10-35v5q0 20 14 33t33 14 33-13 14-34v-5q11 16 11 35 0 23-17 40t-41 16-40-16-17-40z" horiz-adv-x="814.9" />
<glyph glyph-name="joystick" unicode="&#xe829;" d="m2-30q-4 31 5 76l44 207q24 90 79 90h122v395q0 33 46 57t111 23 111-23 46-57v-395h122q56 0 80-90l44-207q9-45 5-76t-20-51-34-29-38-9h-631q-20 0-39 9t-34 29-19 51z m172 222q0-51 69-86t166-36q98 0 166 36t69 86q0 26-21 49t-57 41v-89q0-34-46-57t-111-24-111 24-46 57v89q-36-17-57-41t-21-49z m153 546q0-18 24-31t58-12 58 12 24 31-24 30-58 12-58-12-24-30z" horiz-adv-x="818.4" />
<glyph glyph-name="paper-plane-alt" unicode="&#xe82a;" d="m0 350q0 95 37 182t100 149 150 100 182 37 182-37 149-100 100-149 37-182-37-182-100-150-149-100-182-37-182 37-150 100-100 150-37 182z m200 200q-6-7 2-23l171-358q8-16 25-22t31 1l72 33 29-29 1-1 13-14q12-12 27-10t23 15l66 116 94 46q15 8 14 17t-16 16l-529 213q-17 7-23 0z m101-66q1 2 16-7l252-149q15-10 15-21t-14-17q-16-7-35-3t-34 15l-188 168q-14 12-12 14z" horiz-adv-x="937.5" />
<glyph glyph-name="flash" unicode="&#xe82b;" d="m0 345l387 467q3 4 9 4t9-3q6-5 4-13l-104-343 259-104-385-465q-3-4-9-5t-9 3q-7 6-4 13l104 344z" horiz-adv-x="564" />
<glyph glyph-name="cloud-4" unicode="&#xe82c;" d="m0 257q-2 44 10 86t35 78 57 64 77 45q77 30 156 13 36 81 111 130t166 49q62 0 118-25t97-64 65-98 25-118q0-9-2-27 1 0 3 1t3 1q81 31 159-3t110-116q20-55 12-108t-43-97-88-64q-37-14-73-14h-718v0q-86 0-158 49t-103 130q-17 43-19 88z" horiz-adv-x="1205.1" />
<glyph glyph-name="inbox" unicode="&#xe82d;" d="m0 184v191q0 27 19 51l103 135q24 33 64 33h742q39 0 63-33l103-135q19-24 19-51v-191q0-32-23-55t-55-23h-957q-32 0-55 23t-23 55z m126 197q7-13 28-13h211q0-32 22-55t55-23h229q32 0 55 23t23 55h210q21 0 28 13t-4 29l-55 90q-11 18-34 30t-42 13h-590q-21 0-43-13t-33-30l-56-90q-11-17-4-29z" horiz-adv-x="1113.8" />
<glyph glyph-name="bus" unicode="&#xe82e;" d="m150 775l0-50-100 0c-25 0-50-25-50-50l0-650 50 0 0-100 100 0 0 100 350 0 0-100 100 0 0 100 50 0 0 650c0 25-25 50-50 50l-100 0 0 50z m-50-150l450 0 0-250-450 0 0 100z m50-400c28 0 50-22 50-50 0-28-22-50-50-50-28 0-50 22-50 50 0 28 22 50 50 50z m350 0c28 0 50-22 50-50 0-28-22-50-50-50-28 0-50 22-50 50 0 28 22 50 50 50z" horiz-adv-x="650" />
<glyph glyph-name="basketball" unicode="&#xe82f;" d="m225 775l-225-200 0-400c0-25 25-50 50-50l178 0 97-175c14-25 25-25 50-25l100 0c25 0 36 0 50 25l97 175 178 0c25 0 50 25 50 50l0 400-225 200-400 0z m-25-200l450 0 0-300-450 0 0 300z m50-50l0-200 350 0 0 200-350 0z m28-400l72 0 0-50 50 0 0 50 50 0 0-50 50 0 0 50 72 0-28-50-44 0 0-50 17 0-17-31 0 31-50 0 0-50-50 0 0 50-50 0 0-31-17 31 17 0 0 50-44 0-28 50z m122-100l50 0 0 50-50 0 0-50z" horiz-adv-x="850" />
<glyph glyph-name="commerical-building" unicode="&#xe830;" d="m50 800c-28 0-50-22-50-50 0 0 0-533 0-800 0-25 25-50 50-50 83 0 250 0 250 0l0 150c0 28 26 50 50 50l50 0c24 0 50-22 50-50 0-50 0-100 0-150 0 0 167 0 250 0 25 0 50 25 50 50 0 267 0 800 0 800 0 28-22 50-50 50z m100-150l150 0 0-100-150 0z m300 0l150 0 0-100-150 0z m-300-300l150 0 0-100-150 0z m300 0l150 0 0-100-150 0z" horiz-adv-x="750" />
<glyph glyph-name="town-hall" unicode="&#xe831;" d="m475 800l-375-250 750 0z m-325-300c-28 0-50-22-50-50l0-350-87-150c-8-13-13-18-13-25 0-25 32-25 50-25l850 0c18 0 50 0 50 25 0 7-4 11-12 25l-88 150 0 350c0 28-22 50-50 50z m100-100c28 0 45-23 50-50l0-300-100 0 0 300c0 28 22 50 50 50z m225 0c28 0 50-22 50-50l0-300-100 0 0 300c0 28 22 50 50 50z m225 0c28 0 50-22 50-50l0-300-100 0 0 300c0 28 22 50 50 50z" horiz-adv-x="950" />
<glyph glyph-name="shop-1" unicode="&#xe832;" d="m300 775c-50 0-94-50-100-100l-17-150-83 0c-25 0-50-25-50-50l-50-500c0-25 25-50 50-50l650 0c25 0 50 25 50 50l-50 500c0 25-25 50-50 50l-83 0-17 150c-6 50-50 100-100 100z m0-50l150 0c25 0 47-25 50-50l17-150-284 0 17 150c3 25 25 50 50 50z" horiz-adv-x="750" />
<glyph glyph-name="police" unicode="&#xe833;" d="m200 800c-25 0-50-25-50-50l0-50 350 0 0 50c0 25-25 50-50 50l-250 0z m-50-150l0-25c0-97 78-175 175-175s175 78 175 175l0 25-350 0z m-50-250c-75 0-100-125-100-200l0-300 134 0 341 500-375 0z m450 0l-341-500 441 0 0 300c0 75-25 200-100 200z" horiz-adv-x="650" />
<glyph glyph-name="lastfm-1" unicode="&#xe834;" d="m439 134l-37 99s-59-66-148-66c-78 0-134 69-134 178 0 140 70 190 140 190 100 0 132-65 159-148l37-114c36-110 105-199 302-199 141 0 237 43 237 157 0 92-52 140-150 163l-73 16c-51 11-65 32-65 66 0 39 30 62 81 62 54 0 84-21 88-70l114 14c-9 102-79 144-196 144-102 0-202-38-202-163 0-77 37-126 132-149l77-18c58-14 78-38 78-71 0-42-41-59-119-59-115 0-163 60-190 144l-38 114c-48 148-124 202-276 202-167 0-256-106-256-286 0-173 89-266 249-266 128 0 190 60 190 60z" horiz-adv-x="995" />
<glyph glyph-name="universal-access" unicode="&#xe835;" d="m0 350q0 207 147 354t353 146 354-146 146-354-146-354-354-146-353 146-147 354z m66 0q0-180 127-307t307-127 307 127 127 307-127 307-307 127-307-127-127-307z m163 2q-20 27 2 47l167 146q12 8 22 11t25 3l110 0q15 0 25-3t22-11q9-7 71-62t97-84q21-22 1-47-21-24-46-4-20 18-63 54t-64 57q0-2-3 0t-7 4-6 2q-6 0-6-13l0-58t4-67q2-22 2-26l49-271q4-41-33-49-18-4-33 7t-16 26q-39 221-39 225-6 23-10 23-4-2-6-5t-2-7-1-7l-1-4q0-2-10-59t-19-111l-10-55q-6-18-18-26t-31-7q-39 10-33 49l49 273q6 37 6 147 0 15-6 15t-16-8l-127-109q-27-20-46 4z m199 300q0 30 21 52t52 21 52-21 21-52-21-52-52-21-52 21-21 52z" horiz-adv-x="1000" />
<glyph glyph-name="emo-happy" unicode="&#xe836;" d="m261 800c-60 0-109-65-109-144 0-80 49-145 109-145s110 65 110 145c0 79-49 144-110 144z m477 0c-61 0-110-65-110-144 0-80 49-145 110-145 60 0 110 65 110 145 0 79-50 144-110 144z m208-599c-13 0-27-5-37-16-4-4-8-8-12-12-111-109-253-164-396-165-142-2-285 50-396 155l-3 3-12 12c-21 21-54 20-75-1-20-21-20-55 1-76 3-4 8-8 14-14l3-3c132-124 301-186 469-184 169 1 337 67 468 195 5 5 9 10 14 14 20 22 20 56-1 77-10 10-23 15-37 15z" horiz-adv-x="999" />
<glyph glyph-name="emo-wink" unicode="&#xe837;" d="m261 800c-60 0-109-65-109-144 0-80 49-145 109-145s110 65 110 145c0 79-49 144-110 144z m343-98c-29 0-54-24-54-54 0-30 25-54 54-54l267 0c30 0 54 24 54 54 0 30-24 54-54 54l-267 0z m342-501c-13 0-27-5-37-16-4-4-8-8-12-12-111-109-253-164-396-165-142-2-285 50-396 155l-3 3-12 12c-21 21-54 20-75-1-20-21-20-55 1-76 3-4 8-9 14-14l3-3c132-124 301-186 469-184 169 1 337 67 468 195 5 5 9 9 14 14 20 22 20 56-1 77-10 10-23 15-37 15z" horiz-adv-x="999" />
<glyph glyph-name="spin1" unicode="&#xe838;" d="m496 850c-176 0-331-90-421-226-18-27-33-55-46-85-12-29-21-60-28-92 0 0 0-1 0-1l0 0 0 0c0-1 0-2 0-2 0-7 5-12 11-12l101 0c5 0 10 4 11 9 29 113 109 206 214 253 20 10 41 17 63 23 31 7 62 11 95 11l0 0 0 0 0 0c25 0 50-2 74-7 5-1 10-2 14-3 6-1 10-3 14-4l0 0c5-1 11 1 13 6l51 87c0 0 1 1 1 2 2 6-1 13-7 15-22 7-43 13-65 17-5 1-9 1-13 2-27 5-54 7-82 7l0 0 0 0z m327-114c-5 0-9-2-11-6l-50-87c-3-4-2-10 2-14 29-29 54-63 73-101 4-7 7-14 11-22 19-46 30-97 30-151l0 0 0 0c0-77-22-149-62-209-7-11-15-23-24-34-9-10-18-20-28-30l0 0 0 0 0 0c-4-4-5-10-2-14l50-87c0-1 1-2 2-3 4-5 11-5 16-1 58 52 104 117 134 190 6 14 11 29 15 44 14 46 21 94 21 144 0 108-34 209-92 291-11 16-23 31-37 46-13 14-26 28-41 41l0 0c-1 1-1 1-2 1-2 1-4 2-5 2z m-811-468l0 0c-1 0-2 0-3 0-6-1-10-8-9-14 34-166 149-302 302-366 30-12 61-21 93-28 32-6 66-10 100-10l0 0 0 0c40 0 79 5 117 14 7 1 14 3 22 5 6 2 13 5 20 7 1 0 2 1 3 1 6 3 8 10 4 16l-50 87c-3 5-8 7-13 6-14-4-28-7-42-9-3-1-6-1-8-2-18-2-35-3-53-3l0 0 0 0c-128 0-242 63-311 160-1 0-1 0-1 0-13 19-25 40-35 61-10 21-18 43-24 65-1 6-6 10-11 10l-101 0z" horiz-adv-x="1000" />
<glyph glyph-name="spin2" unicode="&#xe839;" d="m46 144l0 0c0 0-1 0-1 0-8 18-15 37-21 55-6 19-11 38-15 58-19 99-8 203 35 298 3 6 10 8 15 5 1 0 2 0 2-1l0 0 80-59c5-3 6-9 4-14-5-12-9-25-12-38-4-12-7-26-9-39-11-67-3-137 23-201 2-5 0-10-4-13l0 0-80-56c-5-4-12-3-16 3-1 0-1 1-1 2l0 0z m120 574l0 0c0 1 0 1 0 1 15 13 30 25 46 37 16 11 33 22 51 31 89 50 192 72 297 60 6-1 10-6 10-13 0-1-1-1-1-2l0 0-31-94c-2-5-8-8-13-7-13 0-27 0-40 0-14-1-27-2-40-4-68-11-133-40-186-84-4-3-10-3-14 0l0 0-79 58c-5 3-6 11-2 16 0 0 1 1 2 1l0 0z m588 65l0 0c0 0 1 0 1 0 17-10 34-21 50-32 16-12 31-25 46-38 74-69 127-160 148-262 2-6-2-12-9-13-1 0-1 0-2 0l0 0-100 1c-5 0-10 4-11 9-3 13-8 26-12 38-5 12-10 25-17 36-31 61-78 113-137 150-5 3-6 8-5 13l0 0 31 92c2 6 9 9 15 7 1 0 2-1 2-1l0 0z m244-535l0 0c0 0 0 0 0 0-4-20-9-39-15-57-7-19-14-37-22-55-44-92-114-170-205-221-6-3-13-1-16 4 0 1-1 2-1 2l0 0-30 94c-2 6 1 12 6 14 11 7 22 15 32 23 11 9 21 18 30 27 49 48 84 109 101 176 2 5 6 8 11 8l0 0 98-1c6 0 11-5 11-11 0-1 0-2 0-3l0 0z m-438-395l0 0c0 0 0 0 0 0-20-2-40-3-60-3-20 0-40 1-59 4-102 12-198 54-276 125-5 4-5 11 0 16 0 0 1 1 1 1l0 0 81 58c5 3 12 2 16-2 10-8 20-16 32-23 11-7 22-14 34-20 62-31 131-45 200-41 6 0 10-3 12-8l0 0 29-92c2-6-1-12-7-14-1-1-2-1-3-1l0 0z" horiz-adv-x="1000" />
<glyph glyph-name="glass-1" unicode="&#xe83a;" d="m52 746q0 13 10 21t21 9 24 3h786q13 0 24-3t21-9 10-21q0-19-24-43l-353-353v-429h179q15 0 25-10t11-25-11-25-25-11h-500q-14 0-25 11t-11 25 11 25 25 10h179v429l-353 353q-24 24-24 43z" horiz-adv-x="1000" />
<glyph glyph-name="music-3" unicode="&#xe83b;" d="m0-43q0 28 19 50t48 34 58 17 54 6q58 0 107-21v539q0 17 10 32t28 19l464 143q7 3 16 3 22 0 38-16t15-38v-625q0-28-19-50t-48-33-58-18-53-6-54 6-58 18-48 33-19 50 19 50 48 33 58 18 54 6q58 0 107-22v300l-429-132v-396q0-28-19-49t-48-34-58-18-53-6-54 6-58 18-48 34-19 49z" horiz-adv-x="857.1" />
<glyph glyph-name="search-3" unicode="&#xe83c;" d="m0 386q0 80 31 152t84 126 125 84 153 31 152-31 126-84 84-126 31-152q0-123-69-223l191-191q21-21 21-51 0-29-22-50t-50-21q-30 0-50 21l-191 191q-100-69-223-69-80 0-153 31t-125 83-84 126-31 153z m143 0q0-103 73-177t177-73 176 73 74 177-74 176-176 74-177-74-73-176z" horiz-adv-x="928.6" />
<glyph glyph-name="photo-1" unicode="&#xe83d;" d="m0-25l0 750q0 53 36 89t89 36l687 0q53 0 89-36t36-89l0-750q0-53-36-89t-89-36l-687 0q-53 0-89 36t-36 89z m63 0q0-25 18-44t44-19l687 0q26 0 44 19t19 44l0 750q0 25-19 44t-44 18l-687 0q-25 0-44-18t-18-44l0-750z m62 156l0 563q0 13 9 22t22 9l625 0q14 0 23-9t9-22l0-563q0-13-9-22t-23-9l-625 0q-13 0-22 9t-9 22z m31 0l483 0-88 100-18 21-252 286-125-145 0-262z m0 311l102 117q10 10 23 10t24-10l246-281 82 94q10 9 23 9t24-9l101-112 0 434-625 0 0-252z m344 96q0 39 27 66t67 27 66-27 28-66-28-67-66-27-67 27-27 67z m31 0q0-26 19-44t44-19 44 19 18 44-18 43-44 19-44-19-19-43z m41-284l108-123 101 0 0 82-125 137z" horiz-adv-x="937" />
<glyph glyph-name="lock-6" unicode="&#xe83e;" d="m0 131l0 219q0 39 27 66t67 28l0 125q0 117 82 199t199 82 199-82 82-199l0-125q39 0 67-28t27-66l0-219q0-117-82-199t-199-82l-188 0q-117 0-199 82t-82 199z m63 0q0-90 64-154t154-65l188 0q90 0 154 65t65 154l0 219q0 14-9 22t-23 9l-562 0q-14 0-23-9t-8-22l0-219z m93 313l63 0 0 125q0 64 46 110t110 46 110-46 46-110l0-125 63 0 0 125q0 90-65 154t-154 64-154-64-65-154l0-125z m94 0l250 0 0 125q0 52-36 89t-89 36-89-36-36-89l0-125z m63-250q0 25 18 44t44 18 44-18 19-44q0-28-22-84-14-41-41-41t-41 41q-21 56-21 84z" horiz-adv-x="750" />
<glyph glyph-name="tag-5" unicode="&#xe83f;" d="m0 100l0 500q0 51 36 88t89 37l594 0q68 0 105-59l156-250q43-66 0-132l-156-250q-37-59-105-59l-594 0q-53 0-89 36t-36 89z m63 0q0-25 18-44t44-18l594 0q35 0 52 29l157 250q21 33 0 66l-157 250q-17 29-52 29l-594 0q-25 0-44-18t-18-44l0-500z m562 250q0 39 27 66t67 28 66-28 27-66-27-66-66-28-67 28-27 66z m31 0q0-25 19-44t44-18 44 18 18 44-18 44-44 19-44-19-19-44z" horiz-adv-x="1002" />
<glyph glyph-name="thumbs-up-4" unicode="&#xe840;" d="m0-56l0 500q0 39 27 66t67 28l94 0q32 0 60-24 12 6 33 16 123 64 125 226 0 39 28 67t66 27q57 0 105-64t49-147q0-66-8-103 237-6 266-14 43-12 66-43t22-63l0-23q-2-39-27-68 17-34 11-75-7-54-41-86 16-37 0-84-17-58-52-82 7-27 0-54-6-18-14-34-33-60-111-60l-172 0q-92 0-186 21-92 22-127 30l-2 0q0 2-3 2l-4 0 0 2q-28-55-84-55l-94 0q-39 0-67 27t-27 67z m63 0q0-14 8-23t23-9l94 0q13 0 22 9t9 23l0 500q0 13-9 22t-22 9l-94 0q-14 0-23-9t-8-22l0-500z m31 47q0 19 13 33t34 14 33-14 14-33-14-34-33-13-34 13-13 34z m31 0q0-16 16-16t15 16-15 15-16-15z m125 3q0-23 27-27 22-6 145-35 88-20 172-20l172 0q41 0 56 28 6 15 8 23 6 12-2 28t-29 15l-49 0q-16 0-16 16t16 16l51 0q31 0 49 10t22 20 11 30q21 65-39 65l-63 0q-15 0-15 15t15 16l74 0q57 0 69 66 2 22-9 40t-42 19l-61 0q-15 0-15 15t15 16l63 0q61 0 62 45l0 21q0 38-37 47-45 12-337 12 19 59 24 84t5 80q0 57-32 103t-60 45q-31 0-31-31-2-92-46-173t-142-122q-2 0-4-1l-2-1q-25-8-25-33l0-432z" horiz-adv-x="1000" />
<glyph glyph-name="cup-1" unicode="&#xe841;" d="m0 538l0 93q0 26 17 43t42 20l39 113q13 43 58 43l563 0q45 0 58-43l39-113q24-2 41-20t18-43l0-93q0-26-19-44t-44-19l-33 0 1-3q1-3 1-5l-62-562q-4-24-22-39t-41-16l-437 0q-24 0-41 16t-22 39l-62 562q0 2 1 5l1 3-33 0q-26 0-44 19t-19 44z m63 0l749 0 0 93-749 0 0-93z m62 156l625 0-31 93-563 0z m31-219l10-94 543 0 10 94-563 0z m14-125l35-312 465 0 35 312-535 0z m39-344l10-93 437 0 10 93-457 0z" horiz-adv-x="875" />
<glyph glyph-name="trash-7" unicode="&#xe842;" d="m0 569l0 68q2 37 29 63t65 25l94 0 0 31q0 39 27 67t66 27l313 0q39 0 66-27t28-67l0-31 93 0q37 0 65-25t29-63l0-68q0-26-19-44t-44-19l0-531q0-53-36-89t-88-36l-500 0q-53 0-89 36t-36 89l0 531q-26 0-44 19t-19 44z m63 0l749 0 0 62q0 14-8 23t-23 8l-687 0q-14 0-23-8t-8-23l0-62z m62-594q0-25 19-44t44-19l500 0q25 0 43 19t19 44l0 531-625 0 0-531z m63 31l0 407q0 13 8 22t23 9l62 0q14 0 23-9t9-22l0-407q0-13-9-22t-23-9l-62 0q-14 0-23 9t-8 22z m31 0l62 0 0 407-62 0 0-407z m31 719l375 0 0 31q0 14-9 23t-22 8l-313 0q-13 0-22-8t-9-23l0-31z m125-719l0 407q0 13 9 22t22 9l63 0q13 0 22-9t9-22l0-407q0-13-9-22t-22-9l-63 0q-13 0-22 9t-9 22z m31 0l63 0 0 407-63 0 0-407z m157 0l0 407q0 13 8 22t23 9l62 0q14 0 23-9t9-22l0-407q0-13-9-22t-23-9l-62 0q-14 0-23 9t-8 22z m31 0l62 0 0 407-62 0 0-407z" horiz-adv-x="875" />
<glyph glyph-name="params" unicode="&#xe843;" d="m0 538q0 76 63 124l0 94q0 39 27 67t66 27 67-27 27-67l0-94q63-48 63-124t-63-125l0-469q0-39-27-67t-67-27-66 27-27 67l0 469q-63 48-63 125z m63 0q0-12 3-26l2-6q4-13 12-23 8-12 20-21t25-12q16-6 31-6t32 6q13 4 25 13 12 8 19 20 8 10 12 23l2 6q4 14 4 26t-4 25q-2 4-2 6-4 13-12 23-7 12-19 21t-25 12q-16 6-32 6t-31-6q-14-4-25-13-10-8-20-20-8-10-12-23l-2-6q-3-14-3-26z m62-594q0-14 9-23t22-9 23 9 9 23l0 441q-16-4-32-4t-31 4l0-441z m0 746q16 4 31 4t32-4l0 66q0 14-9 23t-23 8-22-8-9-23l0-66z m219-527q0 76 62 125l0 468q0 39 28 67t66 27 66-27 28-67l0-468q62-49 62-125t-62-125l0-94q0-39-28-67t-66-27-66 27-28 67l0 94q-62 48-62 125z m62 0q0-12 4-26l2-6q4-13 12-23 8-12 19-21t26-12q15-6 31-6t31 6q14 4 26 13 11 8 19 20 8 10 12 23 0 2 2 6 4 14 4 26t-4 25l-2 6q-4 13-12 23-8 12-19 20-12 10-26 13-15 6-31 6t-31-6q-14-3-26-13-9-8-19-20-8-10-12-23l-2-6q-4-14-4-25z m63-219q0-14 9-23t22-9 22 9 9 23l0 66q-15-4-31-4t-31 4l0-66z m0 371q15 4 31 4t31-4l0 441q0 14-9 23t-22 8-22-8-9-23l0-441z m219 223q0 76 62 124l0 94q0 39 27 67t67 27 66-27 27-67l0-94q63-48 63-124t-63-125l0-469q0-39-27-67t-66-27-67 27-27 67l0 469q-62 48-62 125z m62 0q0-12 4-26l2-6q4-13 12-23 7-12 19-21t25-12q16-6 32-6t31 6q14 4 25 13 12 8 20 20 8 10 12 23 0 2 2 6 3 14 3 26t-3 25l-2 6q-4 13-12 23-8 12-20 20-11 9-25 13-16 6-31 6t-32-6q-13-4-25-13-12-8-19-20-8-10-12-23l-2-6q-4-14-4-26z m62-594q0-14 9-23t23-9 22 9 9 23l0 441q-16-4-31-4t-32 4l0-441z m0 746q16 4 32 4t31-4l0 66q0 14-9 23t-22 8-23-8-9-23l0-66z" horiz-adv-x="1000" />
<glyph glyph-name="inbox-3" unicode="&#xe844;" d="m0 38l0 218q0 8 2 18l125 469q6 19 22 32t39 12l624 0q22 0 39-12t22-32l125-469q2-10 2-18l0-218q0-53-36-89t-89-37l-750 0q-53 0-89 37t-36 89z m63 0q0-26 18-45t44-18l750 0q25 0 44 18t18 45l0 218-125 469-624 0-125-469 0-218z m58 226l108 375q5 23 29 23l484 0q24 0 29-23l108-375q4-16-5-27t-24-12l-143 0-45-90q-17-35-57-35l-210 0q-40 0-57 35l-45 90-143 0q-15 0-24 12t-5 27z m45 24l127 0q39 0 57-36l45-89 210 0 45 89q18 36 57 36l127 0-92 343-484 0z" horiz-adv-x="1000" />
<glyph glyph-name="globe" unicode="&#xe845;" d="m0 366q0 201 142 342t342 142 343-142 142-342-142-343-343-142-342 142-142 343z m63-16q7-166 125-283 52 37 109 60-43 106-47 223l-187 0z m0 31l187 0q4 104 37 196-62 25-117 68-102-113-107-264z m128 287q51-39 108-62 43 101 117 176-131-22-225-114z m20-623q88-76 205-95-64 64-105 148-53-19-100-53z m70 305q4-111 45-213 69 22 143 26l0 187-188 0z m0 31l188 0 0 157q-78 3-153 29-31-88-35-186z m47 215q69-23 141-27l0 218-2 0q-90-76-139-191z m12-486q49-100 127-166l2 0 0 187q-69-4-129-21z m160-166l2 0q78 66 127 166-61 17-129 21l0-187z m0 219q74-4 143-26 41 102 45 213l-188 0 0-187z m0 218l188 0q-4 98-36 186-74-26-152-29l0-157z m0 188q72 4 141 27-49 115-139 191l-2 0 0-218z m53-619q117 19 205 95-47 34-100 53-41-84-105-148z m0 832q74-75 117-176 57 23 107 62-93 92-224 114z m119-655q57-23 109-60 117 117 125 283l-187 0q-4-117-47-223z m10 450q33-92 37-196l187 0q-6 151-107 264-55-43-117-68z" horiz-adv-x="969" />
<glyph glyph-name="money-2" unicode="&#xe846;" d="m3 243q31 97 107 173 59 61 203 145 129 74 178 123 55 55 74 121 6 16 16 27 14 12 29 16 35 8 61-16l312-312q26-27 16-63-31-99-108-173-58-61-203-145-129-74-177-123-55-53-75-121-6-16-15-27-14-12-30-16-35-8-60 16l-313 312q-25 27-15 63z m60-18l99-99 115-115 99-99q25 79 84 140t128 102l138 80t129 101 83 140l-157 157-155 155q-24-78-83-139t-129-102l-139-80t-128-101-84-140z m274-199l21 29q22 27 47 53 22 23 55 49 11 9 21 0 12-12 0-24l-2 0q-31-25-52-47-24-23-43-48l-20-28q-2-2-2-4-12-12-23 0-8 10-2 20z m27 359q2 18 10 33 8 18 19 32 0 2-5 5-4 2-4 7t4 10 8 5 7-4q4-4 8-6 8 8 20 16t28 12 29 1 24-15q8-8 8-18t-8-15q-5-6-15-4-6 2-18 4-9 4-20 3t-23-11q20-20 51-57 14 8 31 14 16 6 32 8t31-3 31-17q14-12 20-25 4-14 2-30 0-15-10-33-8-19-22-37 8-6 16-13 4-2 5-7t-3-9-9-5-9 3q-9 8-15 16-18-18-35-24-16-6-34-6-15 2-28 8t-20 15-8 17 8 16 13 7 13-3 13-8 13-7 17 0 20 12q-21 21-56 62-32-17-65-19-29-2-50 15-14 12-20 26t-4 29z m42 11q-1-7 1-14t8-10q10-10 22-9t33 10q-30 32-49 51-6-8-10-14t-5-14z m112 143q-9 10 0 22 2 2 4 2 32 25 53 47 23 23 43 49l19 27q2 4 4 4 12 12 22 0 10-10 2-22l-22-29q-21-27-47-53-21-23-54-48-12-10-24 1z m4-195q32-35 53-56 6 5 10 13t6 16 0 14-9 14-15 9-15 1-16-5q-4-2-14-6z" horiz-adv-x="1001" />
<glyph glyph-name="t-shirt" unicode="&#xe847;" d="m4 580q-14 41 20 69l156 125q17 13 39 13l562 0q22 0 39-13l157-125q33-28 19-69l-62-187q-10-29-39-39-10-4-20-4-18 0-31 8l0-383q0-25-19-44t-44-19l-562 0q-26 0-44 19t-19 44l0 383q-13-8-31-8-10 0-19 4-30 10-39 39z m59 20l62-187 94 62 0-500 562 0 0 500 94-62 63 187-157 125-131 0q-13-41-54-67t-96-27-96 27-54 67l-131 0z m320 125q14-27 45-45t72-18 72 18 45 45l-234 0z" horiz-adv-x="1000" />
<glyph glyph-name="wallet" unicode="&#xe848;" d="m0 22l0 625q0 70 51 121t121 51l640 0q40 0 67-28t27-66l0-281q94-71 94-188t-94-187l0-47q0-70-51-121t-121-51l-562 0q-70 0-121 51t-51 121z m63 0q0-45 32-77t77-33l562 0q45 0 78 33t32 77l0 47-281 0q-65 0-111 46t-46 110 46 110 111 46l281 0 0 63q0 13-9 22t-23 9l-640 0q-63 0-109 39l0-492z m0 625q0-45 31-76l0 123q0 13 9 22t22 9l656 0q14 0 23-9t9-22l0-156q15 0 31-6l0 193q0 14-9 22t-23 9l-640 0q-45 0-77-32t-32-77z m62-98q23-11 47-11l609 0 0 31-656 0 0-20z m0 51l656 0 0 31-656 0 0-31z m0 62l656 0 0 32-656 0 0-32z m344-437q0-39 27-66t67-28l320 0q54 51 54 125 0 59-35 104l0-2q-4-8-7-14-20-25-51-25l-281 0q-40 0-67-28t-27-66z m31 0q0 25 19 44t44 19 43-19 19-44-19-44-43-18-44 18-19 44z" horiz-adv-x="1000" />
<glyph glyph-name="search" unicode="&#xe849;" d="m746 209l254-255-105-105-254 254q-106-72-232-72-169 0-289 120t-120 289 120 289 289 120 289-120 120-289q0-127-72-231z m-65 231q0 113-79 193t-193 80-193-80-80-193 80-192 193-80 193 80 79 192z" horiz-adv-x="1000" />
<glyph glyph-name="mail" unicode="&#xe84a;" d="m105 845h1152q43 0 74-31t31-74v-785q0-44-31-75t-74-30h-1152q-43 0-74 30t-31 75v785q0 43 31 74t74 31z m69-157l507-423 507 423h-1014z m-17-681h1048v558l-494-412h-61l-493 412v-558z" horiz-adv-x="1360" />
<glyph glyph-name="heart" unicode="&#xe84b;" d="m775 849q126 0 207-80t81-207v-60q0-285-532-653-531 367-531 653v60q0 127 81 207t206 80q81 0 134-30t110-99q58 68 111 99t133 30z" horiz-adv-x="1063" />
<glyph glyph-name="heart-empty-1" unicode="&#xe84c;" d="m1063 562v-60q0-285-532-653-531 367-531 653v60q0 127 81 207t206 80q81 0 134-30t110-99q58 68 111 99t133 30q126 0 207-80t81-207z m-117-55v50q0 58-39 114t-95 61q-12 2-37 2-53 0-83-19t-72-69l-89-105-89 105q-42 49-72 69t-83 19q-24 0-37-2-56-6-93-60t-41-115v-50q0-30 17-75 68-199 398-441 329 239 399 441 16 50 16 75z" horiz-adv-x="1063" />
<glyph glyph-name="star" unicode="&#xe84d;" d="m1050 464q0-15-29-38l-275-200 105-323q5-17 5-30 0-24-18-24-17 0-38 17l-275 199-275-199q-23-17-39-17-18 0-18 23 0 11 6 31l105 323-275 200q-29 21-29 37 0 23 49 23l340-1 104 324q12 40 32 40 19 0 31-40l106-324 339 1q49 0 49-22z" horiz-adv-x="1050" />
<glyph glyph-name="video-3" unicode="&#xe84e;" d="m1360 849v-1000h-1360v1000h1360z m-200-160h120v80h-120v-80z m-200 0h120v80h-120v-80z m-240 0h120v80h-120v-80z m240-600h320v520h-320v-520z m-440 600h120v80h-120v-80z m640-760h120v80h-120v-80z m-880 760h120v80h-120v-80z m240-600h320v520h-320v-520z m440-160h120v80h-120v-80z m-880 760h120v80h-120v-80z m640-760h120v80h-120v-80z m-640 160h320v520h-320v-520z m440-160h120v80h-120v-80z m-240 0h120v80h-120v-80z m-200 0h120v80h-120v-80z" horiz-adv-x="1360" />
<glyph glyph-name="picture-3" unicode="&#xe84f;" d="m1360 849v-1000h-1360v1000h1360z m-1240-880h1120v760h-1120v-760z m1000 560q0-33-23-56t-57-24-56 24-24 56 24 57 56 23 57-23 23-57z m43-473q2-1 1-4t-4-3h-956q-4 0-4 4v2q18 36 135 280t144 299q1 2 4 3t3-2l311-386 152 122h7l1-2q39-50 102-155t104-158z" horiz-adv-x="1360" />
<glyph glyph-name="th-large-2" unicode="&#xe850;" d="m1000 850v-440h-440v440h440z m-320-320h200v200h-200v-200z m-240 320v-440h-440v440h440z m-320-320h200v200h-200v-200z m880-240v-440h-440v440h440z m-320-320h200v200h-200v-200z m-240 320v-440h-440v440h440z m-320-320h200v200h-200v-200z" horiz-adv-x="1000" />
<glyph glyph-name="th-3" unicode="&#xe851;" d="m1000 850v-160h-440v160h440z m0-280v-160h-440v160h440z m0-280v-160h-440v160h440z m-560 560v-440h-440v440h440z m-320-320h200v200h-200v-200z m880-520v-160h-440v160h440z m-560 280v-440h-440v440h440z m-320-320h200v200h-200v-200z" horiz-adv-x="1000" />
<glyph glyph-name="th-list-4" unicode="&#xe852;" d="m1000 850v-160h-1000v160h1000z m0-280v-160h-1000v160h1000z m0-280v-160h-1000v160h1000z m0-280v-160h-1000v160h1000z" horiz-adv-x="1000" />
<glyph glyph-name="ok" unicode="&#xe853;" d="m1179 778q-250-222-600-750l-115-179q-144 180-464 500l107 107 286-250q150 150 279 272t206 187 131 111 77 59l21 14q4 0 11-2t26-19 35-50z" horiz-adv-x="1179" />
<glyph glyph-name="ok-circle-1" unicode="&#xe854;" d="m500 850q136 0 251-67t182-182 67-251-67-251-182-182-251-67-251 67-182 182-67 251 67 251 182 182 251 67z m-240-447l-54-53q71-71 129-133t81-90l22-26q8 13 22 36t57 85 83 119 95 119 99 104q-18 35-36 35-10-6-32-22t-113-97-211-201z" horiz-adv-x="1000" />
<glyph glyph-name="cancel-5" unicode="&#xe855;" d="m654 349l346-346-154-154-346 346-346-346-154 154 346 346-346 346 154 154 346-346 346 346 154-154z" horiz-adv-x="1000" />
<glyph glyph-name="cancel-circle-2" unicode="&#xe856;" d="m1000 349q0-136-67-251t-182-182-251-67-251 67-182 182-67 251 67 251 182 182 251 67 251-67 182-182 67-251z m-339-232l71 71-161 161 161 161-71 71-161-161-161 161-71-71 161-161-161-161 71-71 161 161z" horiz-adv-x="1000" />
<glyph glyph-name="plus-circle-1" unicode="&#xe857;" d="m1000 349q0-136-67-251t-182-182-251-67-251 67-182 182-67 251 67 251 182 182 251 67 251-67 182-182 67-251z m-440-58h235v118h-235v235h-118v-235h-236v-118h236v-236h118v236z" horiz-adv-x="1000" />
<glyph glyph-name="minus-circle-1" unicode="&#xe858;" d="m1000 349q0-136-67-251t-182-182-251-67-251 67-182 182-67 251 67 251 182 182 251 67 251-67 182-182 67-251z m-794-58h589v118h-589v-118z" horiz-adv-x="1000" />
<glyph glyph-name="link-1" unicode="&#xe859;" d="m1000 583q0-112-78-188l-175-176q-78-78-189-78-97 0-171 63l115 115q26-17 56-17 44 0 75 31l175 176q31 29 31 74 0 44-30 75t-75 30q-25 0-49-12t-33-34h-238l132 129q80 78 188 78 110 0 188-78t78-188z m-387-89l-115-115q-26 17-56 17-44 0-75-31l-175-176q-31-29-31-74 0-44 31-74t74-31q25 0 50 12t32 34h238l-132-129q-80-78-188-78-110 0-188 78t-78 188q0 112 78 188l175 176q78 78 189 78 97 0 171-63z" horiz-adv-x="1000" />
<glyph glyph-name="attach" unicode="&#xe85a;" d="m1113 556q0-67-26-129t-74-110l-448-444-62 61 448 444q74 72 74 178 0 89-58 148t-148 58q-102 0-180-75l-493-489q-59-59-59-133 0-57 37-94t94-36q75 0 134 59l377 372q53 55 53 97 0 21-16 33t-38 12q-48 0-86-40l-340-336-61 61 339 336q66 66 148 66 58 0 100-37t42-94q0-78-79-159l-377-372q-84-84-196-84-93 0-155 61t-63 155q0 110 84 194l493 489q104 101 242 101 125 0 210-84t84-209z" horiz-adv-x="1113" />
<glyph glyph-name="lock-7" unicode="&#xe85b;" d="m582 437v-356q0-32-32-32h-518q-32 0-32 32v356q0 10 3 17t7 10 12 5 13 2 16 0 14-1v127h1q9 87 74 141t153 53 151-62 71-152h1l2-107q4 0 15 1t15 0 13-2 12-5 6-10 3-17z m-161 162q0 51-37 74t-91 23q-53 0-92-25t-39-77v-124h259v129z" horiz-adv-x="582" />
<glyph glyph-name="lock-open-6" unicode="&#xe85c;" d="m582 437v-356q0-32-32-32h-518q-32 0-32 32v356q0 33 32 33h389v194q0 51-37 74t-91 23q-53 0-92-25t-39-77v-125h-97v128h1q9 87 74 141t153 53 151-63 71-151h1l2-172q4 0 15 1t15 0 13-2 12-5 6-10 3-17z" horiz-adv-x="582" />
<glyph glyph-name="tag-6" unicode="&#xe85d;" d="m1000 714v-270l-595-595-405 405 595 595h270z m-160-160q28 28 28 68t-28 67-67 28-68-28-28-67 28-68 68-28 67 28z" horiz-adv-x="1000" />
<glyph glyph-name="reply-3" unicode="&#xe85e;" d="m501 850v-319q110-15 204-45t159-68 118-82 86-91 57-90 35-84 18-69 6-47l1-17q-6 11-19 29t-67 64-125 76-196 52q-77 12-162 12-55 0-115-5v-316l-501 499z" horiz-adv-x="1185" />
<glyph glyph-name="reply-all-2" unicode="&#xe85f;" d="m501 850v-182l-319-319 319-318v-181l-501 499z m365 0v-319q110-15 204-45t159-68 118-82 86-91 57-90 35-84 18-69 7-47v-17q-6 11-19 29t-67 64-125 76q-71 32-197 52-77 12-161 12-55 0-115-5v-316l-501 499z" horiz-adv-x="1550" />
<glyph glyph-name="forward-2" unicode="&#xe860;" d="m0 531h684v319l501-501-501-499v316h-684v365z" horiz-adv-x="1185" />
<glyph glyph-name="code" unicode="&#xe861;" d="m1000 849l500-500-500-500-154 154 346 346-346 346z m-692-500l346-346-154-154-500 500 500 500 154-154z" horiz-adv-x="1500" />
<glyph glyph-name="mail-3" unicode="&#xe862;" d="m0 11v607q0 37 26 63t63 26h822q37 0 63-26t26-63v-607q0-37-26-63t-63-27h-822q-36 0-63 27t-26 63z m71 0q0-8 6-13t12-5h822q7 0 12 5t6 13v428q-18-20-39-37-149-114-238-188-28-24-46-38t-48-27-57-13h-2q-26 0-57 13t-48 27-46 38q-88 74-238 188-21 17-39 37v-428z m0 607q0-94 82-159 108-84 224-176 4-3 20-17t25-21 25-17 28-16 24-5h2q11 0 24 5t28 16 25 17 25 21 20 17q116 92 224 176 30 24 56 65t26 73v14t-1 7-1 7-3 5-5 4-8 2h-822q-7 0-12-6t-6-12z" horiz-adv-x="1000" />
<glyph glyph-name="mail-alt" unicode="&#xe863;" d="m0 11v443q25-28 56-49 202-137 278-192 32-24 51-37t53-27 61-13h2q28 0 61 13t53 27 51 37q95 68 278 192 32 22 56 49v-443q0-37-26-63t-63-27h-822q-36 0-63 27t-26 63z m0 595q0 43 23 72t66 29h822q36 0 62-26t27-63q0-44-27-84t-68-69q-210-146-262-181-5-4-23-17t-30-22-29-18-33-15-27-5h-2q-12 0-27 5t-33 15-29 18-30 22-23 17q-51 35-147 101t-114 80q-35 23-65 64t-31 77z" horiz-adv-x="1000" />
<glyph glyph-name="star-3" unicode="&#xe864;" d="m0 489q0 21 31 26l280 40 126 254q11 23 27 23t28-23l125-254 280-40q32-5 32-26 0-12-15-27l-203-197 48-279q1-4 1-12 0-11-6-19t-17-9q-10 0-22 7l-251 132-250-132q-13-7-23-7-11 0-17 9t-6 19q0 4 1 12l48 279-203 197q-14 15-14 27z" horiz-adv-x="928.6" />
<glyph glyph-name="star-half" unicode="&#xe865;" d="m0 489q0 21 31 26l280 40 126 254q11 23 27 23v-747l-250-132q-13-7-23-7-11 0-17 9t-6 19q0 4 1 12l48 279-203 197q-14 15-14 27z" horiz-adv-x="500" />
<glyph glyph-name="user-5" unicode="&#xe866;" d="m0 66q0 30 2 58t8 61 15 60 24 55 34 45 48 30 62 11q5 0 24-12t41-27 60-27 75-12 74 12 61 27 41 27 24 12q34 0 62-11t48-30 34-45 24-55 15-60 8-61 2-58q0-67-41-106t-108-39h-488q-67 0-108 39t-41 106z m179 498q0 89 62 152t152 63 151-63 63-152-63-151-151-63-152 63-62 151z" horiz-adv-x="785.7" />
<glyph glyph-name="mail-1" unicode="&#xe867;" d="m467 366l-449 210 0 109 893 0 0-109z m0-123l444 210 0-437-893 0 0 438z" horiz-adv-x="928" />
<glyph glyph-name="spin3" unicode="&#xe868;" d="m494 850c-266 0-483-210-494-472-1-19 13-20 13-20l84 0c16 0 19 10 19 18 10 199 176 358 378 358 107 0 205-45 273-118l-58-57c-11-12-11-27 5-31l247-50c21-5 46 11 37 44l-58 227c-2 9-16 22-29 13l-65-60c-89 91-214 148-352 148z m409-508c-16 0-19-10-19-18-10-199-176-358-377-358-108 0-205 45-274 118l59 57c10 12 10 27-5 31l-248 50c-21 5-46-11-37-44l58-227c2-9 16-22 30-13l64 60c89-91 214-148 353-148 265 0 482 210 493 473 1 18-13 19-13 19l-84 0z" horiz-adv-x="1000" />
<glyph glyph-name="spin4" unicode="&#xe869;" d="m498 850c-114 0-228-39-320-116l0 0c173 140 428 130 588-31 134-134 164-332 89-495-10-29-5-50 12-68 21-20 61-23 84 0 3 3 12 15 15 24 71 180 33 393-112 539-99 98-228 147-356 147z m-409-274c-14 0-29-5-39-16-3-3-13-15-15-24-71-180-34-393 112-539 185-185 479-195 676-31l0 0c-173-140-428-130-589 31-134 134-163 333-89 495 11 29 6 50-12 68-11 11-27 17-44 16z" horiz-adv-x="1001" />
<glyph glyph-name="spin5" unicode="&#xe86a;" d="m462 850c-6 0-11-5-11-11l0-183 0 0c0-6 5-11 11-11l69 0c1 0 1 0 1 0 7 0 12 5 12 11l0 183 0 0c0 6-5 11-12 11l-69 0c0 0 0 0-1 0z m250-47c-4 1-8-2-10-5l-91-158 0 0c-4-6-2-13 4-16l60-35c0 0 0 0 0 0 6-3 13-1 16 4l91 158c3 6 2 13-4 16l-61 35c-1 1-3 1-5 1z m-428-2c-2 0-4-1-6-2l-61-35c-5-3-7-10-4-16l91-157c0 0 0 0 0 0 3-6 10-8 16-5l61 35c5 4 7 11 4 16l-91 157c0 1 0 1 0 1-2 4-6 6-10 6z m620-163c-2 0-4 0-6-1l-157-91c0 0 0 0 0 0-6-3-8-10-5-16l35-61c4-5 11-7 16-4l157 91c1 0 1 0 1 0 6 3 7 10 4 16l-35 61c-2 3-6 5-10 5z m-810-4c-5 0-9-2-11-6l-35-61c-3-5-1-12 4-15l158-92 0 0c6-3 13-1 16 5l35 60c0 0 0 0 0 0 3 6 1 13-4 16l-158 91c-2 1-4 2-5 2z m712-235l0 0c-6 0-11-5-11-11l0-69c0-1 0-1 0-1 0-7 5-12 11-12l183 0 0 0c6 0 11 5 11 12l0 69c0 0 0 0 0 1 0 6-5 11-11 11l-183 0z m-794-5l0 0c-7 0-12-5-12-12l0-69c0 0 0 0 0-1 0-6 5-11 12-11l182 0 0 0c6 0 11 5 11 11l0 69c0 1 0 1 0 1 0 7-5 12-11 12l-182 0z m772-153c-4 0-8-2-10-6l-34-60c-1 0-1 0-1 0-3-6-1-13 4-16l158-91c6-3 13-2 16 4l35 61c3 5 1 12-4 15l-158 91 0 0c-2 1-4 2-6 2z m-566-5c-1 0-3 0-5-1l-157-91c0 0-1 0-1 0-5-3-7-11-4-16l35-61c3-5 10-7 16-4l157 91c0 0 0 0 0 0 6 3 8 10 5 16l-35 61c-3 3-7 5-11 5z m468-121c-2 0-4 0-6-1l-61-35c-5-4-7-11-4-16l91-157c0-1 0-1 0-1 3-6 11-7 16-4l61 35c5 3 7 10 4 16l-91 157c0 0 0 0 0 0-2 4-6 6-10 6z m-367-3c-4 1-8-2-10-5l-91-158c-3-6-1-13 4-16l61-35c5-3 12-1 15 4l92 158 0 0c3 6 1 13-5 16l-60 34c0 1 0 1 0 1-2 1-4 1-6 1z m149-57c-7 0-12-5-12-11l0-183 0 0c0-6 5-11 12-11l69 0c0 0 0 0 1 0 6 0 11 5 11 11l0 183 0 0c0 6-5 11-11 11l-69 0c-1 0-1 0-1 0z" horiz-adv-x="1000" />
<glyph glyph-name="spin6" unicode="&#xe86b;" d="m855 9c-189-190-520-172-705 13-190 190-200 494-28 695 11 13 21 26 35 34 36 23 85 18 117-13 30-31 35-76 16-112-5-9-9-15-16-22-140-151-145-379-8-516 153-153 407-121 542 34 106 122 142 297 77 451-83 198-305 291-510 222l0 1c236 82 492-24 588-252 71-167 37-355-72-493-11-15-23-29-36-42z" horiz-adv-x="1000" />
<glyph glyph-name="firefox" unicode="&#xe86c;" d="m504-137c-216 0-387 126-466 306-87 200-17 521 139 663l-6-156c8 9 68 12 78-1 32 62 136 109 220 110-32-26-106-124-99-174 40-13 103-13 136-15 10-6 8-40-12-68-27-37-97-49-97-49l8-106-77 38c-26-64 35-120 97-110 69 12 94 57 142 54 49-2 68-29 61-54-7-30-59-25-59-25-44-70-103-101-198-93 144-119 338-10 387 87 50 97 7 241-43 283 59-25 99-51 120-108 11 125-46 267-149 350 193-56 311-206 314-445 3-239-211-487-496-487z" horiz-adv-x="1000" />
<glyph glyph-name="chrome" unicode="&#xe86d;" d="m498 850c-147-1-291-67-387-186l154-237c39 111 150 182 267 170l414-22c-42 84-108 157-196 208-79 46-166 67-252 67z m-416-226c-52-79-82-173-82-274 0-250 183-457 423-494l128 252c-116-22-233 39-281 146l-188 370z m885-94l-282-15c76-89 82-221 13-317l-226-347c94-6 190 15 278 66 216 125 304 387 217 613z m-467-11c-93 0-169-76-169-169s76-169 169-169 169 76 169 169-76 169-169 169z" horiz-adv-x="1000" />
<glyph glyph-name="opera" unicode="&#xe86e;" d="m426-150c-568 0-568 1000 0 1000s567-1000 0-1000z m0 92c237 0 237 816 0 816s-238-816 0-816z" horiz-adv-x="851" />
<glyph glyph-name="pagelines" unicode="&#xe86f;" d="m0-125q0 11 7 18t18 7q97 0 180 60t140 164q-20-8-40-13t-46-7-51 1-52 16-51 33-47 56-42 81q64 27 120 32t93-4 70-31 49-43 31-46q30 73 45 162-4 0-10-1t-26-2-39 1-46 5-49 13-47 24-42 36-30 53-16 71q39 16 74 20t63 0 52-17 41-28 31-34 23-35 16-31 8-22l3-9q6 68 6 109-4 3-12 8t-27 25-35 40-30 52-19 63 7 71 39 77q41-14 71-34t47-43 27-47 11-50 0-48-7-43-11-34-9-24l-4-8q0-3 0-28t0-40q2 4 5 10t17 24 29 33 39 31 51 24 63 9 74-14q-1-43-12-79t-28-58-39-40-45-25-48-14-44-5-38 1-26 2l-9 2q-13-82-41-158 3 4 10 10t28 23 43 29 55 24 66 11 72-13 76-43q-17-45-42-77t-51-50-55-26-57-8-54 5-48 12-39 15-25 13l-10 6q-63-128-161-201t-215-74q-10 0-18 7t-7 18z" horiz-adv-x="785.7" />
<glyph glyph-name="cancel-circled-3" unicode="&#xe870;" d="m420 770q174 0 297-123t123-297-123-297-297-123-297 123-123 297 123 297 297 123z m86-420l154 154-86 86-154-152-152 152-88-86 154-154-154-152 88-86 152 152 154-152 86 86z" horiz-adv-x="840" />
<glyph glyph-name="cancel-squared" unicode="&#xe871;" d="m700 750q42 0 71-29t29-71l0-600q0-40-29-70t-71-30l-600 0q-40 0-70 30t-30 70l0 600q0 42 30 71t70 29l600 0z m-146-638l86 86-154 152 154 154-86 86-154-152-152 152-88-86 154-154-154-152 88-86 152 152z" horiz-adv-x="800" />
<glyph glyph-name="user-add" unicode="&#xe872;" d="m573 533q0-108-77-184t-183-76-184 76-76 184 76 183 184 77 183-77 77-183z m-260-626q-140 0-227 32t-86 72q0 83 86 146t227 63q136 0 224-63t88-146q0-41-89-72t-223-32z m625 469q21 0 36-15t16-37-16-36-36-15l-104 0 0-105q0-22-16-37t-37-15-37 15-15 37l0 105-104 0q-21 0-37 15t-15 36 15 37 37 15l104 0 0 104q0 21 15 37t37 16 37-16 16-37l0-104 104 0z" horiz-adv-x="990" />
<glyph glyph-name="heart-1" unicode="&#xe873;" d="m464 633q78 108 200 108 102 0 175-73t72-176l0-20-447-513-446 513 0 20q0 102 73 175t175 74q120 0 198-108z" horiz-adv-x="928" />
<glyph glyph-name="heart-empty" unicode="&#xe874;" d="m664 629q-26 0-53-15t-41-30l-14-16-92-96-91 96q-6 7-15 17t-38 27-54 17q-50 0-89-34t-46-83l333-383 334 383q-7 50-45 83t-89 34z m0 112q102 0 175-73t72-176l0-20-447-513-446 513 0 20q0 102 73 175t175 74q120 0 198-108 78 108 200 108z" horiz-adv-x="928" />
<glyph glyph-name="star-1" unicode="&#xe875;" d="m636 250l108-347-280 216-278-216 108 348-276 211 335 0 111 335 112-335 335 0z" horiz-adv-x="928" />
<glyph glyph-name="user-2" unicode="&#xe876;" d="m353 351q139 0 237-99t98-236q0-47-33-80t-79-33l-446 0q-46 0-79 33t-33 80q0 138 98 236t237 99z m-167 279q0 167 167 167 168 0 168-167 0-168-168-168-167 0-167 168z" horiz-adv-x="705" />
<glyph glyph-name="video" unicode="&#xe877;" d="m799 574l112 111-109 112 109 0 0-894-893 0 0 894 112 0 112-112-114-111 113 0 114 113-111 110 157 0 113-112-114-111 132 0 114 113-112 110 156 0 109-112-110-111 110 0z m0-557l0 112-669 0 0-112 669 0z m0 222l0 112-669 0 0-112 669 0z" horiz-adv-x="928" />
<glyph glyph-name="picture" unicode="&#xe878;" d="m241 127l0 224 112 111 111-111 224 223 223-223 0-224-670 0z m-111-111l781 0-112-113-781 0 0 782 112 112 0-781z" horiz-adv-x="928" />
<glyph glyph-name="camera-1" unicode="&#xe879;" d="m464 239q0 112 112 112t112-112-112-112-112 112z m-446 223q0 46 33 79t79 33l223 0 96 185q13 38 53 38l153 0q40 0 53-37l91-186q46 0 79-33t33-79l0-559-893 0 0 559z m112-55q0-23 17-40t39-16 39 16 16 40-16 39-39 16-39-16-17-39z m223-168q0-92 66-158t157-65 157 65 66 158-66 157-157 66-157-66-66-157z" horiz-adv-x="928" />
<glyph glyph-name="ok-2" unicode="&#xe87a;" d="m352-10l-334 333 158 160 176-174 400 401 159-160z" horiz-adv-x="928" />
<glyph glyph-name="ok-circle" unicode="&#xe87b;" d="m465 797q184 0 315-131t131-316-131-315-315-132-316 132-131 315 131 316 316 131z m-70-653l348 348-79 79-269-268-126 126-79-78z" horiz-adv-x="928" />
<glyph glyph-name="cancel" unicode="&#xe87c;" d="m799 116l-156-157-234 235-235-235-156 157 234 234-234 234 156 157 235-235 234 235 156-157-234-234z" horiz-adv-x="817" />
<glyph glyph-name="cancel-circle" unicode="&#xe87d;" d="m465 797q184 0 315-131t131-316-131-315-315-132-316 132-131 315 131 316 316 131z m220-588l-141 142 141 141-79 79-142-141-141 141-79-79 141-141-141-142 79-79 141 141 142-141z" horiz-adv-x="928" />
<glyph glyph-name="plus" unicode="&#xe87e;" d="m911 462l0-223-335 0 0-336-223 0 0 336-335 0 0 223 335 0 0 335 223 0 0-335 335 0z" horiz-adv-x="928" />
<glyph glyph-name="plus-circle" unicode="&#xe87f;" d="m465 797q184 0 315-131t131-316-131-315-315-132-316 132-131 315 131 316 316 131z m223-502l0 112-167 0 0 167-112 0 0-167-168 0 0-112 168 0 0-168 112 0 0 168 167 0z" horiz-adv-x="928" />
<glyph glyph-name="minus" unicode="&#xe880;" d="m18 239l0 223 893 0 0-223-893 0z" horiz-adv-x="928" />
<glyph glyph-name="minus-circle" unicode="&#xe881;" d="m465 797q184 0 315-131t131-316-131-315-315-132-316 132-131 315 131 316 316 131z m223-502l0 112-447 0 0-112 447 0z" horiz-adv-x="928" />
<glyph glyph-name="help-1" unicode="&#xe882;" d="m286-40q0-24-16-40t-40-17q-24 0-40 17t-16 40 16 39 40 17 40-17 16-39z m-153 153q-41 48-41 103 0 61 41 95l187 186q33 32 33 79t-32 79-80 33-79-33-32-79l-112 0q0 93 66 159 64 62 158 62t158-64 64-157-64-158l-188-181q-8-9-8-21t8-19q21-19 40 0 8 8 8 19l112 0q0-55-41-103-41-41-98-41-59 0-100 41z" horiz-adv-x="482" />
<glyph glyph-name="info" unicode="&#xe883;" d="m74 351l-56 0 0 111 335 0 0-390q0-24 17-40t39-16l55 0 0-113-446 0 0 113 56 0q23 0 40 16t16 40l0 223q0 24-16 40t-40 16z m56 334q0 112 112 112t111-112-111-111-112 111z" horiz-adv-x="482" />
<glyph glyph-name="home" unicode="&#xe884;" d="m464 797l447-446-112 0 0-448-669 0 0 448-112 0z m224-781l0 401-224 157-223-157 0-401 168 0 0 168 112 0 0-168 167 0z" horiz-adv-x="928" />
<glyph glyph-name="lock-open" unicode="&#xe885;" d="m409 797q115 0 197-82t82-196l0-447q0-69-49-119t-118-50l-335 0q-70 0-119 50t-49 119l0 390 558 0 0 57q0 69-48 117t-118 49-119-49-50-117l-111 0q0 115 82 196t197 82z m-56-670q23 0 39 16t16 41q0 23-15 39t-40 16-40-16-17-39 17-40 40-17z" horiz-adv-x="705" />
<glyph glyph-name="lock-open-empty" unicode="&#xe886;" d="m409 797q115 0 197-82t82-196l0-447q0-69-49-119t-118-50l-336 0q-70 0-118 50t-49 119l0 390 558 0 0 57q0 69-48 117t-118 49-119-49-50-117l-111 0q0 115 82 196t197 82z m112-781q23 0 39 16t16 40l0 279-446 0 0-279q0-24 16-40t39-16l336 0z m-112 168q0-23-16-40t-40-17q-23 0-39 16t-16 41q0 23 16 39t39 16 40-16 16-39z" horiz-adv-x="705" />
<glyph glyph-name="pin-1" unicode="&#xe887;" d="m911 574q0-61-31-113t-84-82q2-19 2-27 0-138-98-237t-237-98q-103 0-186 56l-259-170 170 259q-60 88-60 190 0 138 98 236t237 99q6 0 18-2t13-2q30 52 81 83t113 31q92 0 158-66t65-157z m-447-445q92 0 157 65t65 157q-26 0-57 8l-88-88q-32-32-78-32t-79 32-32 79 32 80l89 89q-9 31-9 55l0 1-1 0q-92 0-157-66t-66-158 66-157 158-65z m224 333q45 0 78 33t33 78-33 79-78 33-79-33-33-79 33-78 79-33z" horiz-adv-x="928" />
<glyph glyph-name="eye-1" unicode="&#xe888;" d="m465 685q68 0 140-34t124-82 95-97 64-83l23-34q-9-14-24-37t-63-81-97-103-121-82-141-36-140 34-124 85-96 100-64 86l-23 34q8 14 23 36t63 79 98 101 122 79 141 35z m0-558q92 0 158 65t65 158-65 158-158 66-158-66-66-158 66-158 158-65z m-112 223q0 112 112 112t111-112-111-111-112 111z" horiz-adv-x="928" />
<glyph glyph-name="tag" unicode="&#xe889;" d="m389 797l522-522-371 0 0-372-522 523 0 371 371 0z m-167-310q44 0 76 31t31 75-31 75-76 32-75-32-31-75 31-75 75-31z" horiz-adv-x="928" />
<glyph glyph-name="tag-empty" unicode="&#xe88a;" d="m344 557q0-36-25-61t-61-25-60 25-25 61 25 61 60 25 61-25 25-61z m-326 240l371 0 522-522-370 0 0-372-523 524 0 370z m329-100l-229 0 0-229 324-324 0 231 229 0q-63 62-193 192z" horiz-adv-x="928" />
<glyph glyph-name="download" unicode="&#xe88b;" d="m18-97l0 128 670 0 0-128-670 0z m446 384l112 0-223-256-223 256 111 0 0 510 223 0 0-510z" horiz-adv-x="705" />
<glyph glyph-name="upload" unicode="&#xe88c;" d="m18 670l0 127 670 0 0-127-670 0z m223-256l-111 0 223 256 223-256-112 0 0-511-223 0 0 511z" horiz-adv-x="705" />
<glyph glyph-name="download-cloud-1" unicode="&#xe88d;" d="m688 685q92 0 158-65t65-158-65-158-158-65l-167 0 0-167 111 0-168-169-166 169 111 0 0 167-168 0q-92 0-157 65t-66 158 66 158 157 65q11 0 30-2 29 52 81 83t112 31q60 0 113-31t81-83q19 2 30 2z m0-334q45 0 78 33t33 78-33 79-78 33-79-33-33-79l-112 0q0 109 90 178-33 45-90 45-45 0-78-33t-33-78q0-21 7-39l-104-39q-15 36-15 77-44-2-77-34t-34-77 33-78 78-33l447 0z" horiz-adv-x="928" />
<glyph glyph-name="upload-cloud" unicode="&#xe88e;" d="m688 685q92 0 158-65t65-158-65-158-158-65l-447 0q-92 0-157 65t-66 158 66 158 157 65q11 0 30-2 29 52 81 83t112 31q60 0 113-31t81-83q19 2 30 2z m0-334q45 0 78 33t33 78-33 79-78 33-79-33-33-79l-112 0q0 109 90 178-33 45-90 45-45 0-78-33t-33-78q0-21 7-39l-104-39q-15 36-15 77-44-2-77-34t-34-77 33-78 78-33l447 0z m-167-279l0-169-112 0 0 169-111 0 166 167 168-167-111 0z" horiz-adv-x="928" />
<glyph glyph-name="quote-left-1" unicode="&#xe88f;" d="m911 16l-335 0 0 335q0 139 99 236t236 98l0-111q-93 0-158-66t-65-157l223 0 0-335z m-558 0l-335 0 0 335q0 139 98 236t237 98l0-111q-93 0-158-66t-65-157l223 0 0-335z" horiz-adv-x="928" />
<glyph glyph-name="quote-right-1" unicode="&#xe890;" d="m18 685l335 0 0-334q0-140-98-238t-237-97l0 111q92 0 158 65t65 159l-223 0 0 334z m558 0l335 0 0-334q0-140-98-238t-237-97l0 111q92 0 158 65t65 159l-223 0 0 334z" horiz-adv-x="928" />
<glyph glyph-name="quote-left-alt" unicode="&#xe891;" d="m911 16l-335 0 0 335 335 334 0-669z m-558 0l-335 0 0 335 335 334 0-669z" horiz-adv-x="928" />
<glyph glyph-name="quote-right-alt" unicode="&#xe892;" d="m18 685l335 0 0-334-335-335 0 669z m558 0l335 0 0-334-335-335 0 669z" horiz-adv-x="928" />
<glyph glyph-name="pencil-1" unicode="&#xe893;" d="m846 732q66-66 66-158t-66-157l-512-514-316 0 1 318 511 511q65 65 158 65t158-65z m-558-716l478 479-158 157-474-473q34 29 78 27t75-32q32-32 32-79t-32-79l1 0z" horiz-adv-x="928" />
<glyph glyph-name="pencil-neg" unicode="&#xe894;" d="m846 731q66-66 66-157t-66-158l-512-513-316 0 1 317 511 511q66 66 158 66t158-66z m-559-716q32 32 32 79t-32 80-79 32-80-33l0-158 159 0z m477 479q33 32 33 79t-32 79-79 32-79-32z" horiz-adv-x="928" />
<glyph glyph-name="comment-alt" unicode="&#xe895;" d="m464 574q-260 0-316-137-44-103 9-247 46 31 97 40t155 9l370 0q20 64 20 112t-9 81-41 69-102 54-183 19z m0 111q74 0 134-8t120-30 101-58 66-97 26-141q0-50-14-106t-29-86l-15-32-444 0q-126 0-160-14t-119-97q-26 25-50 72t-41 109-21 129 18 131 69 115 139 82 220 31z" horiz-adv-x="928" />
<glyph glyph-name="comment-inv-alt" unicode="&#xe896;" d="m853 127l-444 0q-126 0-160-14t-119-97q-26 25-50 72t-41 109-21 129 18 131 69 115 139 82 220 31q74 0 134-8t120-30 101-58 66-97 26-141q0-50-14-106t-29-86z" horiz-adv-x="928" />
<glyph glyph-name="comment-alt2" unicode="&#xe897;" d="m409 685q-115 0-197-82t-82-196q0-114 80-197l32-32 0-65q10 6 28 17t26 18l47-12q34-9 66-9 115 0 197 82t82 198-82 196-197 82z m0 112q162 0 276-114t114-276-114-277-276-114q-42 0-92 12l-187-125 1 229q-113 115-113 275 0 162 115 276t276 114z" horiz-adv-x="817" />
<glyph glyph-name="comment-inv-alt2" unicode="&#xe898;" d="m409 797q162 0 276-114t114-276-114-277-276-114q-42 0-92 12l-187-125 1 229q-113 115-113 275 0 162 115 276t276 114z" horiz-adv-x="817" />
<glyph glyph-name="chat" unicode="&#xe899;" d="m743 456q74-14 121-68t47-149q0-113-65-168t-158-55l-112 0q-46 0-79-34t-33-79q-92 0-157 66t-66 158l0 112q0 29 6 56l106 0q2 0 5-1t4-1q-9-23-9-54l0-112q0-56 44-88 67 88 179 88l112 0q111 0 111 112 0 96-80 109 21 48 24 108z m-279 229l-223 0q-39 0-64-11t-34-33-11-35-2-32q0-112 111-112l112 0q111 0 179-89 44 33 44 89l0 112q0 65-34 88t-78 23z m0 112q92 0 158-58t66-165l0-112q0-92-65-158t-159-65q0 46-33 79t-78 33l-112 0q-93 0-158 55t-65 168q0 114 65 168t158 55l223 0z" horiz-adv-x="928" />
<glyph glyph-name="chat-inv" unicode="&#xe89a;" d="m688 462q0-92-65-158t-159-65q0 46-33 79t-78 33l-112 0q-93 0-158 55t-65 168q0 114 65 168t158 55l223 0q92 0 158-58t66-165l0-112z m-335 0z m0 0z m390-6q74-14 121-68t47-149q0-113-65-168t-158-55l-112 0q-46 0-79-34t-33-79q-92 0-157 66t-66 158l0 112q0 29 6 56l106 0q24 0 40-17t16-39l0-55 55 0q113 0 195 79t84 193z" horiz-adv-x="928" />
<glyph glyph-name="location-1" unicode="&#xe89b;" d="m495 715q81-81 81-197t-82-197q-8-9-21-23t-47-59-60-92-48-113-22-131q0 63-20 130t-49 115-58 90-49 62l-20 21q-82 81-82 197t82 197 197 82 198-82z m-199-308q47 0 80 33t33 78-33 79-80 33q-45 0-77-33t-33-79 33-78 77-33z" horiz-adv-x="594" />
<glyph glyph-name="location-inv" unicode="&#xe89c;" d="m464 519q0 68-49 117t-119 49-117-49-49-117q0-70 49-119 61-61 117-151 54 86 120 152 48 48 48 118z m-168 278q117 0 199-82t81-197-82-197q-8-9-21-23t-47-59-60-92-48-113-22-131q0 63-20 130t-49 115-58 90-49 62l-20 21q-82 81-82 197t82 197 196 82z m57-278q0-24-17-41t-40-16q-25 0-40 16t-15 41 15 39 40 16q24 0 41-17t16-38z" horiz-adv-x="594" />
<glyph glyph-name="trash" unicode="&#xe89d;" d="m688 685l223 0 0-111-112 0 0-502q0-69-48-119t-119-50l-334 0q-70 0-119 50t-49 119l0 502-112 0 0 111 223 0q0 46 33 79t79 33l223 0q46 0 79-33t33-79z m-335-558q24 0 40 17t16 40-16 39-40 16-39-16-16-39q0-24 16-41t39-16z m0 224q24 0 40 16t16 40-16 39-40 16-39-16-16-39q0-24 16-40t39-16z m223-224q24 0 40 17t16 40-16 39-40 16-39-16-16-39q0-24 16-41t39-16z m0 224q24 0 40 16t16 40-16 39-40 16-39-16-16-39q0-24 16-40t39-16z" horiz-adv-x="928" />
<glyph glyph-name="trash-empty" unicode="&#xe89e;" d="m911 685l0-111-112 0 0-502q0-69-48-119t-119-50l-334 0q-70 0-119 50t-49 119l0 502-112 0 0 111 223 0q0 46 33 79t79 33l223 0q46 0 79-33t33-79l223 0z m-223-613l0 502-447 0 0-502q0-24 17-40t40-16l334 0q23 0 40 16t16 40z m-390 112q0 55 55 55 56 0 56-55 0-57-56-57-55 0-55 57z m0 223q0 55 55 55 56 0 56-55 0-56-56-56-55 0-55 56z m223-223q0 55 55 55 56 0 56-55 0-57-56-57-55 0-55 57z m0 223q0 55 55 55 56 0 56-55 0-56-56-56-55 0-55 56z" horiz-adv-x="928" />
<glyph glyph-name="doc-1" unicode="&#xe89f;" d="m409 797l279-278 0-616-670 0 0 894 391 0z m-279-781l446 0 0 446-223 0 0 223-223 0 0-669z" horiz-adv-x="705" />
<glyph glyph-name="doc-inv-1" unicode="&#xe8a0;" d="m409 797l279-278 0-616-670 0 0 894 391 0z m-59-335l224 0-224 223 0-223z" horiz-adv-x="705" />
<glyph glyph-name="doc-alt" unicode="&#xe8a1;" d="m632 797l279-278 0-616-221 186-223-186-225 186-224-185 0 893 614 0z m168-667l0 223-336 0 0 335-334 0 0-558 114 89 223-184 223 185z m-224 335l224 0q-21 21-111 110t-113 113l0-223z" horiz-adv-x="928" />
<glyph glyph-name="doc-inv-alt" unicode="&#xe8a2;" d="m622 797l289-287 0-607-223 186-224-186-223 186-223-186 0 894 604 0z m-101-390l278 0-278 278 0-278z" horiz-adv-x="928" />
<glyph glyph-name="article" unicode="&#xe8a3;" d="m911 685l-893 0 0 112 893 0 0-112z m-335-223l-558 0 0 112 558 0 0-112z m335-335l-893 0 0 112 893 0 0-112z m-223-224l-670 0 0 113 670 0 0-113z m223 57q0-24-16-40t-39-17-40 17-17 40 17 39 40 17q22 0 39-17t16-39z" horiz-adv-x="928" />
<glyph glyph-name="article-alt" unicode="&#xe8a4;" d="m911 685l-893 0 0 112 893 0 0-112z m-335-223l-558 0 0 112 558 0 0-112z m335-225l-893 0 0 111 893 0 0-111z m-893-277q0 56 56 56t56-56q0-57-56-57t-56 57z m280 56q22 0 39-17t16-39-16-40-39-17q-24 0-40 17t-17 40 17 39 40 17z m166-56q0 56 57 56 55 0 55-56 0-57-55-57-57 0-57 57z" horiz-adv-x="928" />
<glyph glyph-name="book-open-1" unicode="&#xe8a5;" d="m464 629q5 5 15 12t47 26 83 35 127 27 175 12l0-670q-95 0-176-12t-128-27-82-34-47-29l-14-10q-4 4-13 12t-46 26-83 35-127 27-177 12l0 670q94 0 174-12t128-27 83-33 48-29z m-334 0l0-450q172-14 279-71l0 449q-110 58-279 72z m669-450l0 450q-168-14-278-72l0-449q108 57 278 71z" horiz-adv-x="928" />
<glyph glyph-name="folder" unicode="&#xe8a6;" d="m911-40q0-24-16-40t-39-17l-782 0q-24 0-40 17t-16 40l0 502 893 0 0-502z m-558 725l558 0 0-111-893 0 0 223 335 0 0-112z" horiz-adv-x="928" />
<glyph glyph-name="folder-empty-1" unicode="&#xe8a7;" d="m464 685l447 0 0-669q0-47-33-80t-79-33l-669 0q-46 0-79 33t-33 80l0 781 446 0 0-112z m-334 0l0-223 669 0 0 112-446 0 0 111-223 0z m669-669l0 335-669 0 0-335 669 0z" horiz-adv-x="928" />
<glyph glyph-name="box" unicode="&#xe8a8;" d="m18-97l0 559 893 0 0-559-893 0z m503 671l0 223 278 0 112-223-390 0z m-112 223l0-223-391 0 112 223 279 0z" horiz-adv-x="928" />
<glyph glyph-name="rss" unicode="&#xe8a9;" d="m784-97q0 209-103 385t-279 279-384 103l0 127q181 0 347-71t285-190 190-285 71-348l-127 0z m-256 0q0 212-150 361t-360 150l0 129q173 0 320-86t233-233 85-321l-128 0z m-254 0q0 107-75 182t-181 75l0 127q158 0 271-112t112-272l-127 0z m-129 0l-127 0 0 128q53 0 90-38t37-90z" horiz-adv-x="928" />
<glyph glyph-name="rss-alt" unicode="&#xe8aa;" d="m18 15q0 112 112 112t111-112-111-112-112 112z m336 56q0 68-50 118t-118 50l0 112q116 0 197-82 83-85 83-198l-112 0z m-169 391l0 112q144 0 258-71t177-180q68-116 68-252l-112 0q0 112-54 201t-140 139q-89 51-197 51z m0 223l0 112q153 0 287-60t227-153 153-226 59-287l-112 0q0 130-50 242t-130 192-192 130-242 50z" horiz-adv-x="928" />
<glyph glyph-name="cog-1" unicode="&#xe8ab;" d="m911 295l-133-56q-8-22-12-31l55-133-79-79-135 53q-9-4-31-12l-55-134-112 0-56 133q-11 4-33 13l-132-55-78 79 53 134q-1 3-4 9t-6 12-4 11l-131 55 0 112 131 56 14 33-54 132 78 79 133-54q22 9 33 13l55 132 112 0 56-132q14-5 31-13l133 55 80-79-54-135q6-12 12-30l133-56 0-112z m-447-111q69 0 118 48t49 118-49 119-118 50-119-50-49-119 49-118 119-48z" horiz-adv-x="928" />
<glyph glyph-name="wrench" unicode="&#xe8ac;" d="m900 640q11-37 11-66 0-93-65-158t-158-65q-51 0-96 22l-447-448q-21-22-53-22-30 0-52 22t-22 53 22 53l447 447q-23 45-23 96 0 92 66 157t158 66q31 0 63-10l-138-139 0-149 147 0z" horiz-adv-x="928" />
<glyph glyph-name="share-1" unicode="&#xe8ad;" d="m799 127q46 0 79-33t33-79-33-79-78-33-79 33-33 80q0 18 8 39l-169 122q-49-50-118-50t-118 49-50 119q0 9 3 26l-134 44q-16-14-36-14-24 0-40 16t-16 40 16 39 40 16q20 0 34-13t19-31l135-45q21 41 61 65t86 24q52 0 96-31l199 199q-16 30-16 55 0 46 33 79t79 33 78-33 33-79-33-78-79-33q-26 0-55 17l-199-200q31-44 31-96 0-37-17-73l169-121q33 26 71 26z" horiz-adv-x="928" />
<glyph glyph-name="calendar-1" unicode="&#xe8ae;" d="m911-97l-893 0 0 782 112 0 0-669 669 0 0 669 112 0 0-782z m-725 448l0 111 112 0 0-111-112 0z m223 0l0 111 112 0 0-111-112 0z m223 0l0 111 112 0 0-111-112 0z m-446-224l0 112 112 0 0-112-112 0z m223 0l0 112 112 0 0-112-112 0z m223 0l0 112 112 0z m-391 503l0 112q0 23 17 39t40 16 40-16 15-39l0-112q0-24-16-40t-39-16q-24 0-40 16t-17 40z m335 0l0 112q0 23 16 39t40 16q23 0 40-16t16-39l0-112q0-24-16-40t-39-16-40 16-17 40z" horiz-adv-x="928" />
<glyph glyph-name="calendar-inv" unicode="&#xe8af;" d="m744 685l167 0 0-782-893 0 0 782 168 0 0-56q0-46 33-79t79-33 78 33 33 79l0 56 112 0 0-56q0-46 33-79t79-33 78 33 33 79l0 56z m-446-669l0 111-112 0 0-111 112 0z m0 223l0 112-112 0 0-112 112 0z m223-223l0 111-112 0 0-111 112 0z m0 223l0 112-112 0 0-112 112 0z m111-223l112 111-112 0 0-111z m112 223l0 112-112 0 0-112 112 0z m-503 391l0 112q0 23 17 39t40 16 40-16 15-39l0-112q0-24-16-40t-39-16q-24 0-40 16t-17 40z m335 0l0 112q0 23 16 39t40 16q23 0 40-16t16-39l0-112q0-24-16-40t-39-16-40 16-17 40z" horiz-adv-x="928" />
<glyph glyph-name="calendar-alt" unicode="&#xe8b0;" d="m685 685l226 0 0-111-893 0 0 111 221 0 0 112 111 0 0-112 224 0 0 112 111 0 0-112z m-555-558l0 112 669 0 0-112-669 0z m0 224l0 111 669 0 0-111-669 0z m558-448l-558 0 0 113 669 0z" horiz-adv-x="928" />
<glyph glyph-name="mic" unicode="&#xe8b1;" d="m353 351q-46 0-79 33t-33 78l0 223q0 46 33 79t79 33 78-33 33-79l0-223q0-45-33-78t-78-33z m111-335q46 0 79-34t33-79l-446 0q0 46 33 79t78 34l57 0 0 117q-120 21-200 113t-80 216l0 54q0 24 16 40t40 17q23 0 40-17t16-40l0-54q0-92 65-158t158-65 158 65 65 158l0 54q0 24 17 40t40 17 39-17 16-40l0-54q0-123-79-216t-200-113l0-117 55 0z" horiz-adv-x="705" />
<glyph glyph-name="volume-off" unicode="&#xe8b2;" d="m241 127q-92 0-157 65t-66 158 66 158 157 66l0-447z m112 447l223 111 0-669-223 111 0 447z m558-279l-223 0 0 112 223 0 0-112z" horiz-adv-x="928" />
<glyph glyph-name="volume-up" unicode="&#xe8b3;" d="m241 127q-92 0-157 65t-66 158 66 158 157 66l0-447z m112 447l223 111 0-669-223 111 0 447z m446-223q0 44-31 77t-80 34l0 112q27 0 55-7 74-20 121-80t47-136q0-90-63-157t-160-67l0 112q49 0 80 33t31 79z" horiz-adv-x="928" />
<glyph glyph-name="headphones" unicode="&#xe8b4;" d="m856 294q22 0 39-16t16-40l0-223q0-24-16-40t-39-16l-168 0 0 447q0 92-65 157t-158 66-158-66-66-157l0-447-167 0q-24 0-40 16t-16 40l0 223q0 23 16 39t40 17l56 0 0 112q0 138 98 236t236 99 237-99 98-236l0-112 57 0z" horiz-adv-x="928" />
<glyph glyph-name="clock-1" unicode="&#xe8b5;" d="m464 685q-138 0-236-98t-98-237 98-237 236-97 237 97 98 237-98 237-237 98z m1 112q184 0 315-131t131-316-131-315-315-132-316 132-131 315 131 316 316 131z m151-518l-80-80-109 111q-19 17-19 41l0 223 113 0 0-199z" horiz-adv-x="928" />
<glyph glyph-name="lamp-1" unicode="&#xe8b6;" d="m298 685q-70 0-119-49t-49-119q0-84 66-133 81-62 97-144l8 0q16 83 97 144 66 49 66 133 0 70-48 119t-118 49z m0 112q115 0 197-82t81-198q0-136-110-222-57-43-57-96l0-72-223 0 0 72q0 52-58 96-110 86-110 222 0 117 82 198t198 82z m-112-894l0 113 223 0 0-113-223 0z" horiz-adv-x="594" />
<glyph glyph-name="block" unicode="&#xe8b7;" d="m465 797q184 0 315-131t131-316-131-315-315-132-316 132-131 315 131 316 316 131z m-1-112q-138 0-236-98t-98-236q0-107 62-194l466 466q-87 62-194 62z m0-669q138 0 237 97t98 238q0 106-62 193l-466-466q87-62 193-62z" horiz-adv-x="928" />
<glyph glyph-name="resize-full" unicode="&#xe8b8;" d="m784 111l127 128 0-336-335 0 128 130-128 127 79 79z m-431 686l-129-127 128-127-80-80-126 128-128-129 0 335 335 0z m0-637l-129-127 129-130-335 0 0 336 128-128 128 128z m558 637l0-335-127 129-128-128-79 80 127 127-128 127 335 0z" horiz-adv-x="928" />
<glyph glyph-name="resize-full-alt" unicode="&#xe8b9;" d="m839 55l72 72 0-224-223 0 72 72-184 185 79 79z m-749 591l-72-72 0 223 223 0-72-72 184-184-79-79z m670 79l-72 72 223 0 0-223-72 72-184-184-79 79z m-407-565l-184-185 72-72-223 0 0 224 72-72 184 184z" horiz-adv-x="928" />
<glyph glyph-name="resize-small-1" unicode="&#xe8ba;" d="m704 33l-128-130 0 336 335 0-127-128 127-129-79-79z m-686 429l128 129-127 126 79 79 126-126 129 127 0-335-335 0z m0-480l128 129-128 128 335 0 0-336-129 130-127-130z m558 480l0 335 128-127 128 126 78-79-126-126 127-129-335 0z" horiz-adv-x="928" />
<glyph glyph-name="resize-small-alt" unicode="&#xe8bb;" d="m648 88l-72-72 0 223 223 0-72-72 184-185-79-79z m-448 447l-182 183 79 79 183-182 73 70-1-222-222-1z m-182-553l184 185-72 72 223 0 0-223-72 72-184-185z m782 480l-224 0 0 225 73-72 183 182 79-79-183-183z" horiz-adv-x="928" />
<glyph glyph-name="resize-vertical" unicode="&#xe8bc;" d="m241 239l0-167 112 0-167-169-168 169 112 0 0 167 111 0z m-111 223l0 168-112 0 168 167 167-167-112 0 0-168-111 0z" horiz-adv-x="370" />
<glyph glyph-name="resize-horizontal" unicode="&#xe8bd;" d="m353 294l-167 0 0-111-168 167 168 168 0-112 167 0 0-112z m223 112l168 0 0 112 167-168-167-167 0 111-168 0 0 112z" horiz-adv-x="928" />
<glyph glyph-name="move" unicode="&#xe8be;" d="m521 239l0-167 111 0-168-169-166 169 111 0 0 167 112 0z m-112 223l0 168-111 0 166 167 168-167-111 0 0-168-112 0z m-56-167l-167 0 0-111-168 167 168 168 0-112 167 0 0-112z m223 112l168 0 0 112 167-168-167-167 0 111-168 0 0 112z" horiz-adv-x="928" />
<glyph glyph-name="popup" unicode="&#xe8bf;" d="m911 797l0-670-223 0 0-224-670 0 0 671 223 0 0 223 670 0z m-335-781l0 111-335 0 0 224-111 0 0-335 446 0z m223 223l0 335-446 0 0-335 446 0z" horiz-adv-x="928" />
<glyph glyph-name="down" unicode="&#xe8c0;" d="m911 351l-447-448-446 448 158 158 177-176 0 464 223 0 0-464 176 175z" horiz-adv-x="928" />
<glyph glyph-name="left" unicode="&#xe8c1;" d="m464-97l-446 448 446 446 159-158-177-177 465 0 0-223-465 0 177-176z" horiz-adv-x="928" />
<glyph glyph-name="right" unicode="&#xe8c2;" d="m464 797l447-446-447-448-157 160 175 176-464 0 0 224 464 0-175 176z" horiz-adv-x="928" />
<glyph glyph-name="up" unicode="&#xe8c3;" d="m18 352l446 445 447-445-159-159-176 177 0-467-223 0 0 467-177-177z" horiz-adv-x="928" />
<glyph glyph-name="down-circle" unicode="&#xe8c4;" d="m911 350q0-184-131-315t-315-132-316 132-131 315 131 316 316 131 315-131 131-316z m-670-1l223-222 222 222-165 0 0 225-112 0 0-225-168 0z" horiz-adv-x="928" />
<glyph glyph-name="left-circle" unicode="&#xe8c5;" d="m465-97q-185 0-316 132t-131 315 131 316 316 131 315-131 131-316-131-315-315-132z m-2 671l-222-223 222-222 0 166 225 0 0 112-225 0 0 167z" horiz-adv-x="928" />
<glyph glyph-name="right-circle" unicode="&#xe8c6;" d="m465 797q184 0 315-131t131-316-131-315-315-132-316 132-131 315 131 316 316 131z m1-670l222 224-222 222 0-166-225 0 0-112 225 0 0-168z" horiz-adv-x="928" />
<glyph glyph-name="up-circle" unicode="&#xe8c7;" d="m18 350q0 185 130 316t316 131q185 0 316-131t131-316-131-315-315-132-316 132-131 315z m670 2l-224 222-222-222 167 0 0-225 112 0 0 225 167 0z" horiz-adv-x="928" />
<glyph glyph-name="cw" unicode="&#xe8c8;" d="m576 294l112 0q0-139-98-237t-237-98-237 98-98 237 98 237 237 98l66 0-33 33 80 79 166-168-166-168-80 79 33 32-66 2q-93 0-158-66t-65-158 65-158 158-65 158 65 65 158z" horiz-adv-x="705" />
<glyph glyph-name="loop" unicode="&#xe8c9;" d="m575 183l168 223 168-223-112 0 0-57q0-69-48-118t-119-49l-334 0q-70 0-119 49t-49 118l0 57 111 0 0-57q0-22 17-39t40-16l334 0q23 0 40 15t16 40l0 57-113 0z m-221 335l-167-224-169 224 112 0 0 55q0 69 49 118t119 50l334 0q70 0 119-50t48-118l0-55-111 0 0 55q0 24-16 40t-40 16l-334 0q-24 0-40-16t-17-40l0-55 113 0z" horiz-adv-x="928" />
<glyph glyph-name="loop-alt" unicode="&#xe8ca;" d="m799 351l112 0 0-56q0-69-48-119t-119-49l-391 0 0-111-223 168 223 167 0-112 391 0q23 0 39 16t16 40l0 56z m-669 56l0-56-112 0 0 56q0 70 49 118t119 49l390 0 0 111 223-166-223-168 0 111-390 0q-24 0-40-16t-16-39z" horiz-adv-x="928" />
<glyph glyph-name="exchange-1" unicode="&#xe8cb;" d="m911 127l-670 0 0-111-223 168 223 167 0-112 670 0 0-112z m-893 335l0 112 670 0 0 111 223-166-223-168 0 111-670 0z" horiz-adv-x="928" />
<glyph glyph-name="split" unicode="&#xe8cc;" d="m576 797l112 0 0-108q0-115-82-197l-316-314q-44-45-48-106l111 0-167-169-168 169 113 0q6 111 80 185l316 314q49 50 49 118l0 108z m110-725l113 0-167-169-168 169 111 0q-4 61-48 106l-63 62 80 79 62-62q74-74 80-185z" horiz-adv-x="817" />
<glyph glyph-name="arrow-curved" unicode="&#xe8cd;" d="m799 295l0-56 112 0-223-223-224 223 112 0 0 56q0 116-81 197t-197 82-198-82-82-197q0 162 115 276t276 114 276-114 114-276z" horiz-adv-x="928" />
<glyph glyph-name="play" unicode="&#xe8ce;" d="m18 797l670-446-670-448 0 894z" horiz-adv-x="705" />
<glyph glyph-name="play-circle2" unicode="&#xe8cf;" d="m465 797q184 0 315-131t131-316-131-315-315-132-316 132-131 315 131 316 316 131z m-167-670l446 224-446 223 0-447z" horiz-adv-x="928" />
<glyph glyph-name="stop" unicode="&#xe8d0;" d="m18-97l0 894 893 0 0-894-893 0z" horiz-adv-x="928" />
<glyph glyph-name="pause" unicode="&#xe8d1;" d="m18-97l0 894 223 0 0-894-223 0z m446 0l0 894 224 0 0-894-224 0z" horiz-adv-x="705" />
<glyph glyph-name="to-start" unicode="&#xe8d2;" d="m911-97l-670 448 670 446 0-894z m-893 113l0 669 223 0 0-669-223 0z" horiz-adv-x="928" />
<glyph glyph-name="to-end" unicode="&#xe8d3;" d="m18 797l670-446-670-448 0 894z m670-781l0 669 223 0 0-669-223 0z" horiz-adv-x="928" />
<glyph glyph-name="eject" unicode="&#xe8d4;" d="m18 239l446 558 447-558-893 0z m0-336l0 224 892 0 0-224-892 0z" horiz-adv-x="928" />
<glyph glyph-name="target" unicode="&#xe8d5;" d="m521 407l0 162q60-16 103-60t59-102l-162 0z m0-113l162 0q-16-59-59-103t-103-59l0 162z m-113 113l-162 0q16 59 59 102t103 60l0-162z m0-113l0-162q-60 16-103 59t-59 103l162 0z m113 390l0 113q152-19 261-128t129-262l-113 0q-18 107-95 183t-182 94z m-390-277l-113 0q19 152 128 261t262 129l0-113q-106-18-182-94t-95-183z m277-390l0-114q-154 19-262 129t-128 262l113 0q18-107 95-183t182-94z m390 277l113 0q-21-153-129-262t-261-129l0 114q105 18 182 94t95 183z" horiz-adv-x="928" />
<glyph glyph-name="signal" unicode="&#xe8d6;" d="m688-97l0 894 111 0 0-894-111 0z m-224 0l0 671 112 0 0-671-112 0z m-223 0l0 448 112 0 0-448-112 0z m-223 0l0 224 112 0 0-224-112 0z" horiz-adv-x="817" />
<glyph glyph-name="award-1" unicode="&#xe8d7;" d="m241 239q53 0 112 20l0-356-112 113-111-113 0 356q58-20 111-20z m-223 335q0 223 223 223t223-223-223-223-223 223z" horiz-adv-x="482" />
<glyph glyph-name="award-empty" unicode="&#xe8d8;" d="m241 239q53 0 112 20l0-356-112 113-111-113 0 356q58-20 111-20z m1 558q92 0 157-66t65-158-65-157-157-65-158 65-66 157 66 158 158 66z m0-335q45 0 78 33t33 78-33 79-78 33-79-33-33-79 33-78 79-33z" horiz-adv-x="482" />
<glyph glyph-name="list" unicode="&#xe8d9;" d="m18 684q0 57 56 57t56-57q0-55-56-55t-56 55z m0-223q0 57 56 57t56-57q0-55-56-55t-56 55z m0-223q0 56 56 56t56-56q0-55-56-55t-56 55z m0-223q0 56 56 56t56-56q0-56-56-56t-56 56z m223 614l0 112 670 0 0-112-670 0z m0-223l0 112 670 0 0-112-670 0z m0-223l0 111 670 0 0-111-670 0z m0-224l0 112 670 0 0-112-670 0z" horiz-adv-x="928" />
<glyph glyph-name="list-nested" unicode="&#xe8da;" d="m18 684q0 57 56 57t56-57q0-55-56-55t-56 55z m223-55l0 112 670 0 0-112-670 0z m0-168q0 57 57 57 55 0 55-57 0-55-55-55-57 0-57 55z m223-55l0 112 447 0 0-112-447 0z m-223-391q0 56 57 56 55 0 55-56 0-56-55-56-57 0-57 56z m223-56l0 112 447 0 0-112-447 0z m0 279q0 56 57 56 55 0 55-56 0-55-55-55-57 0-57 55z m224-55l0 111 223 0 0-111-223 0z" horiz-adv-x="928" />
<glyph glyph-name="bat-empty" unicode="&#xe8db;" d="m911 462l0-223-112 0 0-55q0-24-16-41t-39-16l-670 0q-24 0-40 17t-16 40l0 335q0 22 16 38t40 17l670 0q24 0 40-16t15-39l0-57 112 0z m-223-223l0 223-558 0 0-223 558 0z" horiz-adv-x="928" />
<glyph glyph-name="bat-half" unicode="&#xe8dc;" d="m911 462l0-223-112 0 0-55q0-24-16-41t-39-16l-670 0q-24 0-40 17t-16 40l0 335q0 22 16 38t40 17l670 0q24 0 40-16t15-39l0-57 112 0z m-223-223l0 223-224 0 0-223 224 0z" horiz-adv-x="928" />
<glyph glyph-name="bat-full" unicode="&#xe8dd;" d="m911 462l0-223-112 0 0-55q0-24-16-41t-39-16l-670 0q-24 0-40 17t-16 40l0 335q0 22 16 38t40 17l670 0q24 0 40-16t15-39l0-57 112 0z" horiz-adv-x="928" />
<glyph glyph-name="bat-charge" unicode="&#xe8de;" d="m799 462l112 0 0-223-112 0 0-55q0-24-16-41t-39-16l-670 0q-24 0-40 17t-16 40l0 110 179 0q17-49 60-80t97-31l0 56 113 0 0 56-113 0 0 112 110 0 0 55-110 0 0 55q-54 0-97-31t-60-80l-179 0 0 113q0 22 16 38t40 17l670 0q24 0 40-16t15-39l0-57z" horiz-adv-x="928" />
<glyph glyph-name="mobile-1" unicode="&#xe8df;" d="m464 797q93 0 159-66t65-157l0-447q0-92-65-158t-159-66l-223 0q-92 0-157 66t-66 158l0 447q0 92 66 157t157 66l223 0z m-111-840q24 0 41 17t16 42-16 40-41 17-41-17-17-40 17-42 41-17z m223 170l0 447q0 45-33 78t-79 33l-223 0q-45 0-78-33t-33-78l0-447 446 0z" horiz-adv-x="705" />
<glyph glyph-name="cd-1" unicode="&#xe8e0;" d="m465 797q184 0 315-131t131-316-131-315-315-132-316 132-131 315 131 316 316 131z m1-556q45 0 78 32t32 78-32 78-78 33-78-33-33-78 33-78 78-32z" horiz-adv-x="928" />
<glyph glyph-name="equalizer" unicode="&#xe8e1;" d="m576 239l0-112-55 0 0-167q0-23-17-40t-39-17-39 17-17 40l0 167-56 0 0 112 56 0 0 503q0 24 17 39t38 16q24 0 41-16t16-39l0-503 55 0z m335 335l0-112-55 0 0-502q0-23-16-40t-41-17q-23 0-39 17t-16 40l0 502-56 0 0 112 56 0 0 168q0 24 16 39t39 16 41-16 16-39l0-168 55 0z m-670-112l0-111-55 0 0-391q0-23-16-40t-40-17q-23 0-39 17t-17 40l0 391-56 0 0 111 56 0 0 280q0 24 16 39t40 16 40-16 16-39l0-280 55 0z" horiz-adv-x="928" />
<glyph glyph-name="cursor" unicode="&#xe8e2;" d="m911 16l-112-113-390 392-168-168-223 670 670-223-167-167z" horiz-adv-x="928" />
<glyph glyph-name="aperture" unicode="&#xe8e3;" d="m608 407l-225 382q47 8 81 8 177 0 304-120z m-33-168l233 395q103-125 103-283 0-53-16-112l-320 0z m-96 280l-427 0q37 91 109 158t167 97z m-24-335l423 0q-37-90-108-157t-165-99z m-99 278l-234-396q-104 126-104 285 0 52 16 111l322 0z m-33-165l227-385q-48-9-86-9-172 0-302 121z" horiz-adv-x="928" />
<glyph glyph-name="aperture-alt" unicode="&#xe8e4;" d="m864 547q47-97 47-196 0-36-9-82l-316 0z m-258-175l0 400q145-48 228-172z m-121-162l401 0q-50-146-172-230z m62 259l-281 280q96 48 198 48 38 0 83-8l0-320z m-164-240l277-279q-97-47-196-47-34 0-81 9l0 317z m-60 100l0-401q-145 48-228 173z m-297 104l317 0-278-278q-47 97-47 196 0 36 8 82z m188 287l228-228-399 0q48 145 171 228z" horiz-adv-x="928" />
<glyph glyph-name="steering-wheel" unicode="&#xe8e5;" d="m465 797q184 0 315-131t131-316-131-315-315-132-316 132-131 315 131 316 316 131z m0-112q-107 0-193-62t-122-161l629 0q-36 99-122 161t-192 62z m-1-390q24 0 41 16t16 40q0 24-17 40t-39 16-39-16-17-40 17-40 38-16z m-334 56q0-124 79-217t199-112q-2 137-83 233t-195 96z m391-329q120 20 199 112t79 217q-114 0-195-96t-83-233z" horiz-adv-x="928" />
<glyph glyph-name="book-1" unicode="&#xe8e6;" d="m130 797l669 0 0-894-669 0q-46 0-79 33t-33 80l0 669q0 46 33 79t79 33z m558-781l0 669-112 0 0-224-112 112-111-112 0 224-112 0 0-669 447 0z" horiz-adv-x="817" />
<glyph glyph-name="book-alt" unicode="&#xe8e7;" d="m353 461l0 113 223 0 0-113-223 0z m446 112l111-112-111 0 0-558-669 0q-46 0-79 33t-33 80l0 669q0 46 33 79t79 33l669 0 0-112 112 0z m-111-557l0 669-447 0 0-669 447 0z" horiz-adv-x="928" />
<glyph glyph-name="brush" unicode="&#xe8e8;" d="m464 202q0-124-87-212t-210-87q-81 0-149 40 68 39 109 108t40 151q0 61 44 105t105 44 105-44 43-105z m415 562q32-32 32-79t-33-79l-318-318q-20 55-61 97t-97 62l318 318q32 32 79 32t80-33z" horiz-adv-x="928" />
<glyph glyph-name="brush-alt" unicode="&#xe8e9;" d="m353 127q0-92-65-158t-158-66q-62 0-112 30 52 29 82 81t30 113q0 46 33 79t79 33 78-33 33-79z m526 637q32-32 32-79t-33-79l-422-421q-16 58-58 100t-99 57l421 423q32 32 79 32t80-33z" horiz-adv-x="928" />
<glyph glyph-name="eyedropper" unicode="&#xe8ea;" d="m845 415l-16-16 81-81-80-78-80 81-415-418-208 0-109 113 0 201 418 418-83 84 78 78 83-83 16 17q65 65 158 65t157-65q66-65 66-158t-66-158z m-539-381l366 365-158 158-360-361q63-3 106-46 48-48 46-116z" horiz-adv-x="928" />
<glyph glyph-name="layers" unicode="&#xe8eb;" d="m18 183l446-112 447 112 0-112-447-112-446 112 0 112z m0 223l446-112 447 112 0-112-447-111-446 111 0 112z m0 223l446 112 447-112 0-111-447-112-446 112 0 111z" horiz-adv-x="928" />
<glyph glyph-name="layers-alt" unicode="&#xe8ec;" d="m18 127l446-111 447 111 0-111-447-113-446 113 0 111z m0 224l446-112 447 112 0-112-447-112-446 112 0 112z m0 223l446-112 447 112 0-112-447-111-446 111 0 112z m0 223l446-112 447 112 0-112-447-111-446 111 0 112z" horiz-adv-x="928" />
<glyph glyph-name="cloud-1" unicode="&#xe8ed;" d="m688 518q92 0 158-65t65-158-65-158-158-66l-447 0q-92 0-157 66t-66 158 66 158 157 65q1 0 30-4 30 53 81 84t112 31q60 0 113-31t81-84q28 4 30 4z m0-335q45 0 78 33t33 79-33 78-78 33-79-33-33-79l-112 0q0 111 89 178-33 46-89 46-45 0-78-33t-33-79q0-22 7-40l-104-38q-15 36-15 76-44-2-77-33t-34-77 33-78 78-33l447 0z" horiz-adv-x="928" />
<glyph glyph-name="rain" unicode="&#xe8ee;" d="m688 629q92 0 158-66t65-157-65-158-158-65l-447 0q-92 0-157 65t-66 158 66 157 157 66q1 0 30-3 30 52 81 83t112 32q60 0 113-32t81-83q28 3 30 3z m0-335q45 0 78 33t33 79-33 79-78 33-79-33-33-79l-112 0q0 109 90 178-33 45-90 45-45 0-78-33t-33-78q0-22 7-40l-104-38q-15 36-15 75-44-1-77-33t-34-76q0-46 33-79t78-33l447 0z m-579-320q-15-15-37-15t-38 16-16 38 16 38q9 9 47 28t71 33l34 14q-56-131-77-152z m223 0q-15-15-36-15t-39 15q-16 16-16 39t16 38q9 9 48 28t72 33l32 14q-55-131-77-152z m224 0q-16-15-38-15t-38 16-16 38 16 38q10 9 48 28t71 33l33 14q-56-131-76-152z" horiz-adv-x="928" />
<glyph glyph-name="moon-inv" unicode="&#xe8ef;" d="m706 178q105 0 205 56-42-145-162-238t-275-93q-188 0-322 134t-134 323q0 154 93 274t237 163q-56-100-56-205 0-172 122-293t292-121z" horiz-adv-x="928" />
<glyph glyph-name="umbrella-1" unicode="&#xe8f0;" d="m465 797q184 0 315-131t131-315l-112 0q0 16-12 29t-30 13-29-13-13-29l-111 0q0 16-13 29t-29 13-29-13-12-29l0-279q0-69-49-119t-119-50-118 50-49 119l112 0q0-24 16-40t39-16q24 0 40 16t16 40l0 279q0 16-12 29t-30 13-29-13-13-29l-111 0q0 16-13 29t-29 13-29-13-13-29l-112 0q0 184 131 315t316 131z" horiz-adv-x="928" />
<glyph glyph-name="chart-bar" unicode="&#xe8f1;" d="m688-97l0 894 223 0 0-894-223 0z m-335 0l0 671 223 0 0-671-223 0z m-335 0l0 448 223 0 0-448-223 0z" horiz-adv-x="928" />
<glyph glyph-name="chart-pie" unicode="&#xe8f2;" d="m402 256l-280-280q-104 123-104 281t104 278z m172 426q144-21 241-130t96-255q0-164-115-279t-280-115q-122 0-229 79l287 291 0 409z m-110-331l-320 320q143 115 320 126l0-446z" horiz-adv-x="928" />
<glyph glyph-name="chart-pie-alt" unicode="&#xe8f3;" d="m424 256l-296-296q-110 129-110 296t110 295z m44 39l-362 360q157 130 362 142l0-502z m55 390q143-21 238-130t95-256q0-164-115-280t-278-116q-127 0-233 78l293 290 0 414z" horiz-adv-x="873" />
<glyph glyph-name="key-1" unicode="&#xe8f4;" d="m633 685q-70 0-119-49t-50-117q0-14 4-32l11-57q-58-58-175-175t-174-173l0-66 111 0 0 111 112 0 0 112 111 0 0 47 80 79 57-11q18-3 31-3 70 0 119 49t48 118-48 118-118 49z m0 112q115 0 197-82t81-197-81-197-198-82q-28 0-51 5l-5-5 0-112-112 0 0-111-111 0 0-113-335 0 0 224 340 340q-5 23-5 52 0 115 82 196t198 82z m-57-278q0 55 56 55t56-55q0-57-56-57t-56 57z" horiz-adv-x="928" />
<glyph glyph-name="key-inv" unicode="&#xe8f5;" d="m633 797q115 0 197-82t81-197-81-197-198-82q-28 0-51 5l-5-5 0-112-112 0 0-111-111 0 0-113-335 0 0 224 340 340q-5 23-5 52 0 115 82 196t198 82z m0-335q22 0 39 16t16 41-16 39-40 16q-24 0-40-17t-16-38q0-24 17-41t40-16z" horiz-adv-x="928" />
<glyph glyph-name="hash" unicode="&#xe8f6;" d="m799 462l-153 0-28-223 181 0 0-112-195 0-28-224-112 0 28 224-223 0-28-224-111 0 27 224-139 0 0 112 154 0 27 223-181 0 0 112 196 0 27 223 112 0-28-223 223 0 28 223 112 0-28-223 139 0 0-112z m-293-223l28 223-223 0-28-223 223 0z" horiz-adv-x="817" />
<glyph glyph-name="at" unicode="&#xe8f7;" d="m851 127l-163 0q-54 0-88 46-60-47-136-47-92 0-157 65t-66 158 66 158 157 66l224 0 0-334 90 0 1-1q20 54 20 113 0 139-98 236t-237 98-236-98-98-237 98-237 236-97q141 0 237 98l79-79q-131-132-315-132t-316 132-131 315 131 316 316 131 315-131 131-315q0-120-60-224z m-275 222l0 112-112 0q-45 0-78-33t-33-79 33-78 79-33 78 33 33 78z" horiz-adv-x="928" />
<glyph glyph-name="pilcrow" unicode="&#xe8f8;" d="m688 797l0-112-112 0 0-782-112 0 0 782-111 0 0-782-112 0 0 448q-92 0-157 65t-66 157 66 158 157 66l447 0z" horiz-adv-x="705" />
<glyph glyph-name="dial" unicode="&#xe8f9;" d="m353 352q0 112 112 112t111-112-111-112-112 112z m372 316q0-23 16-39t39-17q18 0 35 14 96-124 96-274 0-128-62-229t-160-157q-103-60-225-60-128 0-229 62t-157 160q-60 103-60 224 0 149 95 272 15-12 32-12 24 0 41 17t16 39q0 18-12 33 96 77 219 93 3-22 19-36t37-15 37 15 18 36q121-15 218-90-13-15-13-36z m-484-316q0-91 66-157t158-66 158 66 65 157q0 92-66 158l-158 158-157-158q-66-66-66-158z" horiz-adv-x="928" />
<glyph glyph-name="search-2" unicode="&#xe8fa;" d="m680 256c-55-55-126-83-197-83-65 0-129 23-182 66l-51-125-130-130c-14-10-29-15-45-15-41 0-75 37-75 77 0 16 5 32 15 45l129 130 126 51c-44 52-66 117-66 182 0 152 127 277 279 277 150 0 277-128 277-278 0-72-26-144-80-197z m-319 75c34-33 78-50 122-50 92 0 170 77 170 172 0 93-79 170-170 170-94 0-172-79-172-170 0-45 17-89 50-122z" horiz-adv-x="760" />
<glyph glyph-name="mail-2" unicode="&#xe8fb;" d="m580 306l258-267-789 0 259 264 135-127z m-517 355l760 0-380-362z m566-309l257 242 0-508z m-629-266l0 508 259-243z" horiz-adv-x="886" />
<glyph glyph-name="heart-2" unicode="&#xe8fc;" d="m380 18l-285 283c-66 65-95 137-95 200 0 109 73 182 183 182 102 0 137-48 197-117 60 69 95 117 198 117 110 0 182-73 182-182 0-63-29-135-95-200z" horiz-adv-x="760" />
<glyph glyph-name="star-2" unicode="&#xe8fd;" d="m320 445l99 303 99-303 320 0-259-187 99-306-259 188-260-188 100 306-259 187 320 0z" horiz-adv-x="838" />
<glyph glyph-name="camera-2" unicode="&#xe8fe;" d="m554 275c0-54-44-98-98-98s-98 44-98 98 45 97 98 97 98-44 98-97z m-321 362l678 0 0-634-911 0 0 634 143 0 0 60 90 0 0-60z m392-362c0 93-76 170-169 170-93 0-170-77-170-170s77-170 170-170c93 0 169 76 169 170z m240 126l0 190-819 0 0-190 250 0c38 47 95 77 160 77 64 0 122-30 159-77l250 0z" horiz-adv-x="911" />
<glyph glyph-name="th" unicode="&#xe8ff;" d="m160 660l0-161-160 0 0 161 160 0z m231 0l0-161-161 0 0 161 161 0z m-231-230l0-162-160 0 0 162 160 0z m231 0l0-162-161 0 0 162 161 0z m-231-230l0-160-160 0 0 160 160 0z m231 0l0-160-161 0 0 160 161 0z m229 460l0-161-161 0 0 161 161 0z m229 0l0-161-160 0 0 161 160 0z m-229-229l0-162-161 0 0 162 161 0z m0-231l0-160-161 0 0 160 161 0z m229 231l0-162-160 0 0 162 160 0z m0-228l0-163-160 0 0 163 160 0z" horiz-adv-x="849" />
<glyph glyph-name="th-list" unicode="&#xe900;" d="m160 660l0-161-160 0 0 161 160 0z m0-230l0-162-160 0 0 162 160 0z m0-230l0-160-160 0 0 160 160 0z m641 406l0-81-533 0 0 81 533 0z m0-230l0-81-533 0 0 81 533 0z m0-217l0-81-533 0 0 81 533 0z" horiz-adv-x="801" />
<glyph glyph-name="ok-3" unicode="&#xe901;" d="m875 588l-535-600-340 338 123 124 196-195 420 457z" horiz-adv-x="875" />
<glyph glyph-name="cancel-2" unicode="&#xe902;" d="m123 654l181-181 181 181 123-124-182-178 183-184-124-121-181 182-181-182-123 122 183 183-182 178z" horiz-adv-x="609" />
<glyph glyph-name="cancel-circle-1" unicode="&#xe903;" d="m406 755c227 0 405-180 405-404 0-226-178-406-405-406-225 0-406 180-406 406 0 224 181 404 406 404z m84-404l125 125-85 84-124-125-126 126-84-85 127-125-127-125 84-85 126 127 124-125 85 83z" horiz-adv-x="811" />
<glyph glyph-name="plus-2" unicode="&#xe904;" d="m408 443l228 0 0-173-228 0 0-231-179 0 0 231-229 0 0 173 229 0 0 219 179 0 0-219z" horiz-adv-x="636" />
<glyph glyph-name="home-2" unicode="&#xe905;" d="m885 575l276 0 0-90-1161 0 0 90 548 0 0 173 337 0 0-173z m-777-134l943 0 0-489-568 0 0 301-170 0 0-301-205 0 0 489z m671-245l0 177-146 0 0-177 146 0z m191 0l0 177-146 0 0-177 146 0z" horiz-adv-x="1161" />
<glyph glyph-name="lock-2" unicode="&#xe906;" d="m456 403c50-49 82-117 82-192 0-148-122-269-269-269-149 0-269 121-269 269 0 75 30 143 80 192l0 166c0 104 85 189 189 189s187-85 187-189l0-166z m-275 166l0-104c55 20 115 20 174 0l0 104c0 47-39 87-86 87-49 0-88-40-88-87z m-20-388l0 60-85 0-12-30 12-30 85 0z m53-65l-43 43-61-63 13-30 30-11z m84-10l-60 0 0-85 30-12 30 12 0 85z m65 53l-43-43 61-61 32 11 11 30z m10 82l0-60 85 0 12 30-12 30-85 0z m-53 67l43-43 61 61-11 30-32 13z m-82 10l60 0 0 85-30 12-30-12 0-85z m-67-53l43 43-61 61-30-11-13-32z" horiz-adv-x="538" />
<glyph glyph-name="lock-open-2" unicode="&#xe907;" d="m459 455c149 0 269-120 269-267 0-149-120-269-269-269-148 0-269 120-269 269 0 76 33 146 85 195l0 211c0 48-39 86-87 86-48 0-87-38-87-86l0-130-101 0 0 130c0 104 84 188 188 188s188-84 188-188l0-151c27 9 54 12 83 12z m-106-297l0 60-85 0-13-30 13-30 85 0z m52-65l-42 42-62-62 13-30 30-11z m84-10l-60 0 0-85 30-13 30 13 0 85z m65 52l-43-42 62-61 31 11 11 30z m10 83l0-60 85 0 12 30-12 30-85 0z m-53 66l43-42 61 61-11 30-31 12z m-82 10l60 0 0 85-30 13-30-13 0-85z m-66-52l42 42-61 61-30-11-13-31z" horiz-adv-x="728" />
<glyph glyph-name="eye-4" unicode="&#xe908;" d="m488 695c291 0 487-340 487-340s-196-339-487-339-488 339-488 339 196 340 488 340z m0-579c131 0 238 108 238 239s-107 239-238 239-239-108-239-239 107-239 239-239z m107 239c0-59-50-106-107-106-59 0-107 47-107 106 0 57 48 107 107 107 57 0 107-50 107-107z" horiz-adv-x="975" />
<glyph glyph-name="tag-2" unicode="&#xe909;" d="m665 541l-10-233-242-420c-11-20-36-27-55-16l-336 195c-20 11-28 36-17 56l243 420 197 124 95-54c7 18 5 19 9 36 9 39 18 108 95 167 26 22 66 22 103 3 20-8 37-23 50-40 12-18 18-38 20-57-2-24-13-56-65-81-42-19-77-24-109-28-29-4-51-6-70-19z m-10 258c-70-53-80-115-86-152 0-6-1-10-2-15-2-6 0-10-3-18 23 15 46 17 76 19 30 4 65 9 103 26 35 15 52 38 54 63 0 29-22 59-53 76-1 1-4 3-6 4-30 15-60 15-83-3z m-218-400c42-23 97-10 121 33 20 34 14 75-10 102l-43 27c-37 12-80-4-101-40-24-43-10-97 33-122z" horiz-adv-x="816" />
<glyph glyph-name="thumbs-up" unicode="&#xe90a;" d="m746 213c23-45 4-91-27-114 72-226-418-104-456-67l0-58c0-16-14-30-29-30l-205 0c-15 0-29 14-29 30l0 482c0 15 14 28 29 28l205 0c15 0 29-13 29-28l0-33c97 64 147 224 148 230 15 65 53 103 107 103 56 0 122-55 122-172 0-28-11-73-29-107l18 0c74 0 157-35 130-141 29-49 10-103-13-123z m-110 1c-16 3-16 17 0 17 72 0 74 75 9 77-14 1-14 15 0 15 65 0 54 83-16 83l-74 0c-26 0-39 16-39 32 0 30 53 95 53 145 0 64-31 101-51 101-22 0-33-17-35-38-15-100-125-267-220-308l0-226c133-66 251-71 307-74 85-2 128 65 40 84-19 2-17 19-4 19 89 0 95 66 30 73z" horiz-adv-x="773" />
<glyph glyph-name="thumbs-down" unicode="&#xe90b;" d="m28 487c-23 45-4 91 27 114-73 226 418 103 456 67l0 58c0 16 14 30 29 30l204 0c16 0 30-14 30-30l0-482c0-15-14-28-30-28l-204 0c-15 0-29 13-29 28l0 33c-98-64-147-224-148-230-17-65-53-103-108-103s-121 54-121 172c0 28 10 73 29 107l-19 0c-73 0-157 35-130 141-28 49-9 103 14 123z m110-3c16-1 16-15 0-15-72 0-74-75-9-77 14-1 14-15 0-15-65 0-54-83 15-83l75 0c26 0 37-16 37-32 0-30-51-95-51-145 0-64 30-101 50-101 21 0 34 17 36 38 15 99 125 267 220 308l0 226c-133 66-251 71-307 73-85 3-128-64-40-83 19-2 17-19 2-19-88 0-93-66-28-75z" horiz-adv-x="774" />
<glyph glyph-name="download-2" unicode="&#xe90c;" d="m0 730l419 0 205-210 0-550-624 0 0 760z m90-90l0-580 444 0 0 430-161 0 0 150-283 0z m391-326l-168-196-170 197 117 0-2 104 106 0 0-105 117 0z" horiz-adv-x="624" />
<glyph glyph-name="export" unicode="&#xe90d;" d="m741 223l90 0 0-193c0-33-26-59-58-59l-713 0c-32 0-60 26-60 59l0 502c0 34 28 60 60 60l229 0 0-90-199 0 0-441 651 0 0 162z m-457-27s1 386 284 386l-34 148 331-233-331-236 36 166s-249-1-249-231l-37 0z" horiz-adv-x="865" />
<glyph glyph-name="pencil-4" unicode="&#xe90e;" d="m795 731c50-46 44-118-4-165l-46-46s35 53-37 123c-64 64-124 37-124 37l49 48c43 45 120 45 162 3z m-89-250l-492-493-210-51-4 4 55 210 493 490c8 2 30 9 60 2l-523-522-15-55 60-60 56 15 25 24 3 56-40 40 479 479c7-7 7-7 15-15 71-70 38-124 38-124z" horiz-adv-x="830" />
<glyph glyph-name="pencil-alt" unicode="&#xe90f;" d="m304 310l60 117 226 226c14-8 20-12 34-26s17-20 26-34l-226-226-118-60z m-304-303l113 444 237 236s80 23 165 0l-206-205-150-77-33-178c42-42 64-65 98-97l176 33 78 150 208 209c27-89-2-169-2-169l-236-237-445-113z" horiz-adv-x="697" />
<glyph glyph-name="edit" unicode="&#xe910;" d="m90 589l0-593 444 0 0 262 90 101 0-453-624 0 0 760 541 0-75-77-376 0z m749 180c35-34 32-88-3-124l-57-56 17 75-63 64-74-17 56 57c35 35 90 35 124 1z m-219-99c0 3 65 20 75 23l1 1 67-69c-4 0-23-75-23-75l-371-384-159-36-2 1 41 158z m-247-422l-45 46-35-6-23-22-10-40 46-45 39 9 23 23z" horiz-adv-x="864" />
<glyph glyph-name="chat-3" unicode="&#xe911;" d="m85 749l608 0c57 0 83-26 83-85l0-387c0-55-26-82-83-82l-274 0-303-244 63 244-94 0c-57 0-85 27-85 84l0 385c0 59 28 86 85 85z m75-157l0-83 456 0 0 83-456 0z m456-239l0 82-456 0 0-82 456 0z" horiz-adv-x="776" />
<glyph glyph-name="print" unicode="&#xe912;" d="m866 564c40 0 75-35 75-78l0-366c0-42-35-77-75-77l-76 0 34-153-691 0 27 153-82 0c-45 0-78 35-78 77l0 366c0 43 33 78 78 78l96 0 0 117 34 0 0 129 527 0 0-129 34 0 0-117 97 0z m-623 199l0-292 457 0 0 292-457 0z m-113-389c30 0 55 24 55 54 0 28-25 53-55 53-29 0-54-25-54-53 0-30 25-54 54-54z m63-438l567 0-47 242-484 0z m252 113l-139 0 0 35 139 0 0-35z m198 0l-139 0 0 35 139 0 0-35z" horiz-adv-x="941" />
<glyph glyph-name="bell" unicode="&#xe913;" d="m355 90c-31 0-56 28-56 63 0 7 39 8 56 8 44 0 56-3 56-8 0-35-25-63-56-63z m340 45c10-11 16-24 16-37 0-88-223-128-356-128s-355 40-355 128c0 13 5 26 15 37 121 249 90 365 156 458 30 41 65 67 122 80 2 32 28 57 62 57 33 0 60-25 63-57 56-13 91-39 121-80 66-93 35-209 156-458z m-340-87c99 0 231 12 283 75-52 61-184 73-283 73-97 0-231-12-282-73 51-62 185-77 282-75z" horiz-adv-x="711" />
<glyph glyph-name="attention" unicode="&#xe914;" d="m905 77c8-14 11-30 11-45 0-53-41-91-90-91l-735 0c-48 0-91 40-91 91 0 15 4 31 13 45l368 637c15 28 44 45 78 45 32 0 61-17 77-45z m-512 472l0-299 133 0 0 299-133 0z m67-369c-42 0-75-32-75-76 0-41 33-74 75-74s75 33 75 74c0 43-32 76-75 76z" horiz-adv-x="916" />
<glyph glyph-name="info-3" unicode="&#xe915;" d="m469 78l0 349-121 0 0-349 121 0z m-61 410c40 0 71 31 71 72 0 39-31 70-71 70s-72-31-72-70c0-40 32-72 72-72z m-2 269c224 0 407-182 407-407 0-223-183-406-407-406-225 0-406 183-406 406 0 225 181 407 406 407z" horiz-adv-x="813" />
<glyph glyph-name="question" unicode="&#xe916;" d="m405 618c-105 0-160-58-160-163l130 0c0 39 9 58 29 58 19 0 27-19 27-58 0-48-23-66-70-66-3 0-11 0-20 1l0-122 130 0 0 51c64 16 97 63 97 136 0 97-69 163-163 163z m1-405c-41 0-76-35-76-78 0-41 35-77 76-77s77 36 77 77-35 78-77 78z m0 544c224 0 407-182 407-407 0-223-183-406-407-406-225 0-406 183-406 406 0 225 181 407 406 407z" horiz-adv-x="813" />
<glyph glyph-name="location-4" unicode="&#xe917;" d="m540 506c0-104-80-205-132-282-113-161-129-297-129-297-3-12-13-12-15 0 0 0-21 136-131 297-92 128-133 178-133 282 0 148 119 267 269 267 149 0 271-119 271-267z m-269-112c59 0 104 49 104 107s-45 102-104 102c-55 0-101-45-101-102s46-107 101-107z" horiz-adv-x="540" />
</font>
</defs>
</svg>
